Мектуб, моя любовь / Mektoub, My Love: Canto Uno (Абделатиф Кешиш / Abdellatif Kechiche) [2017, Франция, Италия, мелодрама, комедия, BDRip] MVO (Мельница)

Страницы:  1
Ответить
Автор
Сообщение

порошков

Moderator

Стаж: 10 лет 6 месяцев

Сообщений: 13988

порошков · 15-Июл-19 21:34 (1 месяц 2 дня назад, ред. 15-Июл-19 21:35)

Мектуб, моя любовь / Mektoub, My Love: Canto Uno
Страна: Франция, Италия
Жанр: мелодрама, комедия
Год выпуска: 2017
Продолжительность: 02:53:37
Перевод: Профессиональный (многоголосый закадровый) | Мельница
Субтитры: нет
Оригинальная аудиодорожка: нет
Режиссер: Абделатиф Кешиш / Abdellatif Kechiche
В ролях: Шаин Бумедин, Офели Бо, Салим Кешьюш, Лу Люттио, Алексия Шандар, Афсиа Эрзи, Делинда Кешиш, Камел Саади, Хатика Карауи, Мелинда Эласфур
Описание: Жаркое лето на юге Франции. Молодой сценарист Амин возвращается на время летних каникул домой, на побережье Лионского залива. Кузены, кузины, друзья, студентки из Ниццы - все здесь утоляют жажду, танцуют, купаются в море, сплетничают, ревнуют и занимаются любовью. Офелия любит Тони, но обручена с Клеманом. Шарлотта тоже любит Тони, Тони любит женщин, как и Селин, но Селин больше любит отвязные вечеринки. Вслед за этими безрассудными и разгоряченными телами Амин пускается на поиски любви, вдохновения, а если повезет - и судьбы.

Качество видео: BDRip | Mektoub.My Love.Canto.Uno.BDRemux.TeamHD-potroks
Формат видео: AVI
Видео: 720x304 (2.37:1), 25 fps, XviD build 73 ~1351 kbps avg, 0.25 bit/pixel
Аудио: 48 kHz, AC3 Dolby Digital, 3/2 (L,C,R,l,r) + LFE ch, ~448 kbps
Сэмпл

MediaInfo

Код:
Формат                                   : AVI
Формат/Информация                        : Audio Video Interleave
Профиль формата                          : OpenDML
Размер файла                             : 2,19 Гбайт
Продолжительность                        : 2 ч. 53 м.
Общий поток                              : 1806 Кбит/сек
Название фильма                          : Мектуб, моя любовь_2017_BDRip
Программа кодирования                    : VirtualDubMod 1.5.10.3 | www.virtualdub-fr.org || (build 2550/release)
Авторское право                          : порошков
Видео
Идентификатор                            : 0
Формат                                   : MPEG-4 Visual
Профиль формата                          : Advanced [email protected]
Настройки формата                        : BVOP1
Параметр BVOP формата                    : 1
Параметр QPel формата                    : Нет
Параметр GMC формата                     : Без точки перехода
Параметр матрицы формата                 : Default (MPEG)
Идентификатор кодека                     : XVID
Идентификатор кодека/Подсказка           : XviD
Продолжительность                        : 2 ч. 53 м.
Битрейт                                  : 1346 Кбит/сек
Ширина                                   : 720 пикселей
Высота                                   : 304 пикселя
Соотношение сторон                       : 2,35:1
Частота кадров                           : 25,000 кадров/сек
Цветовое пространство                    : YUV
Субдискретизация насыщенности            : 4:2:0
Битовая глубина                          : 8 бит
Тип развёртки                            : Прогрессивная
Метод сжатия                             : С потерями
Бит/(Пиксели*Кадры)                      : 0.246
Размер потока                            : 1,63 Гбайт (75%)
Библиотека кодирования                   : XviD 73
Аудио
Идентификатор                            : 1
Формат                                   : AC-3
Формат/Информация                        : Audio Coding 3
Коммерческое название                    : Dolby Digital
Идентификатор кодека                     : 2000
Продолжительность                        : 2 ч. 53 м.
Вид битрейта                             : Постоянный
Битрейт                                  : 448 Кбит/сек
Каналы                                   : 6 каналов
ChannelLayout                            : L R C LFE Ls Rs
Частота                                  : 48,0 КГц
Частота кадров                           : 31,250 кадров/сек (1536 SPF)
Битовая глубина                          : 16 бит
Метод сжатия                             : С потерями
Размер потока                            : 556 Мбайт (25%)
Выравнивание                             : Разделение по промежуткам
Продолжительность промежутка             : 40  мс. (1,00 видеокадр)
Время предзагрузки промежутка            : 500  мс.
ServiceKind/String                       : Complete Main
Скриншоты
Download
Сайт не распространяет и не хранит электронные версии произведений, а лишь предоставляет доступ к создаваемому пользователями каталогу ссылок на торрент-файлы, которые содержат только списки хеш-сумм
Как скачивать? (для скачивания .torrent файлов необходима регистрация)
[Профиль]  [ЛС] 

Faster007

Стаж: 7 лет 5 месяцев

Сообщений: 797

Faster007 · 15-Июл-19 22:41 (спустя 1 час 6 мин.)

Порошков спасибо за этот фильм...!!!! Почитал описание фильма и впал в транс - прямо Санта Барбара какая то...!!!!
[Профиль]  [ЛС] 

insociable

Стаж: 1 год 4 месяца

Сообщений: 960


insociable · 15-Июл-19 23:49 (спустя 1 час 8 мин.)

Faster007 писал(а):
77676687 Порошков спасибо за этот фильм...!!!! Почитал описание фильма и впал в транс - прямо Санта Барбара какая то...!!!!
Кекса много
[Профиль]  [ЛС] 

oliru

Стаж: 7 лет 7 месяцев

Сообщений: 1405


oliru · 17-Июл-19 21:11 (спустя 1 день 21 час)

Faster007 писал(а):
77676687прямо Санта Барбара какая то...!!!!
Ну судя по продолжительности - она. Пожалуй, не стану качать, подожду отзывов.
[Профиль]  [ЛС] 

insociable

Стаж: 1 год 4 месяца

Сообщений: 960


insociable · 17-Июл-19 21:47 (спустя 36 мин., ред. 17-Июл-19 21:47)

Еще вторая часть будет.
Цитата:
Как в прошлом году большая часть зрителей покинула просмотр ленты «Дом, который построил Джек», так и в этом аналогичная ситуация произошла с драмой «Мектуб. Интермеццо» от режиссёра Абделатиф Кешиш.
Показ проходил довольно-таки поздно (в два с половиной часа ночи), критики уже едва стояли на ногах, но они даже не могли представить, что их ждало впереди. Кешиш решил угарнуть по полной и представил сырую версию ленты, которую он закончил в монтажной комнате буквально на днях. В итоге всё вылилось в 4 часа, которые практически полностью забиты крупными планами женских задниц с умышленно затянутыми сценами реального кунилингуса.
[Профиль]  [ЛС] 

goka

Стаж: 11 лет 8 месяцев

Сообщений: 472

goka · 18-Июл-19 20:23 (спустя 22 часа)

Куни, моя любовь?
[Профиль]  [ЛС] 

Maribat

Стаж: 7 лет

Сообщений: 30


Maribat · 18-Июл-19 22:56 (спустя 2 часа 33 мин.)

Французы в этом фильме есть?
[Профиль]  [ЛС] 

insociable

Стаж: 1 год 4 месяца

Сообщений: 960


insociable · 18-Июл-19 23:13 (спустя 17 мин., ред. 18-Июл-19 23:13)

Maribat писал(а):
77690396Французы в этом фильме есть?
Есть. Да и это Южная Франция, если что, колонии арабов были, там осели.
скрытый текст
[Профиль]  [ЛС] 

glebb

Стаж: 12 лет 9 месяцев

Сообщений: 73


glebb · 21-Июл-19 03:23 (спустя 2 дня 4 часа, ред. 21-Июл-19 03:23)

Молодежное кино, для тех, кто не озабочен работами, домашними проблемами и политикой ))) Почти 3 часа трепа и местных сплетен ни о чем. Можно было сделать красивый клиповый фильм на час двадцать, кадры и освещение позволяли. Но нет блин, и тут трясли камерой, что глаза на край экрана наезжают. Смысла нет, сюжет забудется на следующее утро. На по-быстрому ради красивых кадров с морем и кадров на закате промотать можно
[Профиль]  [ЛС] 

WOW33

Стаж: 11 лет

Сообщений: 119


WOW33 · 22-Июл-19 23:40 (спустя 1 день 20 часов)

НУ КОГДА УЖЕ РУССКИЕ САБЫ?
[Профиль]  [ЛС] 

Andrey59t

Стаж: 6 лет

Сообщений: 230

Andrey59t · 24-Июл-19 15:34 (спустя 1 день 15 часов)

на арабов и т.п. негров не охота смотреть (хотя не расист) просто задолбали беременные следователи и т.п. толерантики не смотрятся уже - евреев давно не видно почему то
[Профиль]  [ЛС] 
 
Ответить
Loading...
Error