(OST) Shoujo Kakumei Utena / Юная революционерка Утена - La Fillette Révolutionnaire Complete CD-BOX - 2008, FLAC (tracks+.cue), lossless

Страницы:  1
Ответить
Автор
Сообщение

mike1314

Стаж: 10 лет 7 месяцев

Сообщений: 173

mike1314 · 11-Май-09 15:38 (10 лет 3 месяца назад, ред. 06-Июл-14 19:34)

Utena la fillette revolutionnaire CD Box
Жанр: OST
Год выпуска диска: 2008
Производитель диска: Япония
Аудио кодек: FLAC
Тип рипа: tracks+.cue
Битрейт аудио: lossless
Продолжительность: (указана в треклистах)
Трэклист:
CD1 A la veille d'une reolution absolue
01 Shoujo Kakumei - overture
02 Rinbu - Revolution (Round Dance Revolution) (Full Op. theme)
03 SUBTITLE
04 Hikarisasu Niwa
05 Gakuen no SCARLET (UTENA no THEME)
06 Gakuen no LYRIC
07 JAB UP BEAUTY
08 Bara no Tameiki (ANTHY no THEME)
09 Yuuga na Kanojo
10 Sono Kanojo no Higeki
11 Butou no EROS
12 Kokoro no DICE
13 Mienai Bara
14 Tsuioku no Rakuen
15 Shi no APHRODITE
16 Hikarisasu Niwa - ILLUSION
17 Taiyou wo Iru Mono
18 PASSIONATE
19 Kioku no IDEA
20 Densetsu - Kami no Na ha ABRAXAS
21 EYE CATCH
22 KASHIRA-Seijin (Kagee Shoujo no THEME)
23 Zettai Unmei Mokushiroku
24 Kettousha tachi
25 DIOS he no Inori
26 When Where Who Which
27 Nikutai no Naka no Koseidai
28 SPIRA MIRABILIS Gekijou
29 Tenshi Souzou Sunawachi Hikari
30 LAST EVOLUTION (Zettai Shinka Kakumei)
31 Fuuin Jubaku
32 Nanibito mo Kataru koto Nashi
33 Zettai Unmei Mokushiroku (industrial mix)
34 Jikai Yokoku
35 truth
36 Zettai Unmei Mokushiroku
Total time 1:11:22
CD2 Embryologie d'eoile virtuelle
01 Virtual Star Hasseigaku
02 Fujingekiron Gattaijutsu
03 Kakuu Kakokei Majinai
04 Chikyuu Wa Jinbutsu Chinretsushitsu
05 Ensuikei Zettairan Algebra
06 Senjuku Nenrei Toumeiki
07 Gentouchouga Juuroku Seiki
08 Rinbu Revolution (TV Size)
09 Shi No Aphrodite - Tsuioku
10 Hitotoki No Jouryuu
11 Houkago No Shoujo - Tachi
12 Panorama Ranman
13 Chinkonkyoku
14 Dona Dona
15 Hitomi No Naka No Yokan
16 Yume Wo Miru Saibou
17 Arasoi No Jouka E
18 Nagusami No Kyoushuu
19 Nemuro Kinenkan
20 Eien No Himitsu
21 Kokuhaku Shoukoushitsu - Kuusou No Warui Mushi
22 Mitsu No Knife
23. Gougai Shoujo (Saru)
24. Shi No Butou
25. Zettai Unmei Mokushiroku with Banyuu Inryoku
26. Tsumi No Kajitsu
27. Truth (TV Size)
28. Virtual Star Hasseigaku (Karaoke)
Total time 1:02:06
CD3 L'horloge de la ville, horloge biologique
01 Poison
02 Watashi Kuusou Seimeitai
03 Morning Lyrical
04 Victory
05 Evergreen Memory
06 Nova
07 Virtual Star Hasseigaku (Banyuu Inryoku)
08 Pessimism
09 Possession
10 Bluebeard
11 Heizoku Uchuu Ni Fumetsu No Koutei
12 Tenderness
13 Campus Dandy
14 Temptation
15 Tenshi Androgynous (the Angel Androgynous)
16 Suspicion
17 Watashi Banbatsu Hyaku Fushigi
18 Aphrodite Scat
19 Ambition
20 Alien Girl
21 Tennen Douhou Kyuden Enkinhou No Sho
22 Akio Car
23 Picaresque
24 Guui Guuwa Guuest
25 Orpheus
26 Shine
27 Tainai Tokei Toshi Oruroi
28 Rose and release
29 Eye Catcher A
30 Gertsen No Kubi
31 Sakasama Boku to Boku No Heya
32 Virtual Star Hasseigaku (TV Size)
33 Eye Catcher B
Total time 1:03:47
CD4 L'horloge de la ville, horloge biologique
01 Last Evolution - Shinka Kakumei Zenya
02 Nikutai no Naka no Koseidai
03 Chikyuu wa Jinbutsu Chinretsushitsu
04 Missing Link
05 Nanibito mo Kataru Koto Nashi
06 W no Yogen
07 Kakuu Kakokei Majinai
08 Spira Mirabilis Gekijou
09 Adolescence Mokushiroku
10 Zettai Unmei Mokushiroku with Banyuu Inryoku
11 Tenshi Souzou Sunawachi Hikari
12 Tenshi Souzou Sunawachi Hikari - karaoke
Total time 37:31
CD5 La lumiere, creation des anges
01 Dai 1 Maku - Bara No Kokuin (Drama)
02 Nouvelle Mariee
03 Dai 2 Maku - Kettousha-Tachi (Drama)
04 Foi
05 Dai 3 Maku - Haitoku No Kyoudai
06 Fascination
07 Dai 4 Maku - Engage Shite... (Drama)
08 Bal
09 Dai 5 Maku - Shower No Kare (Drama)
10 Chouchou
11 Programe De Radiodiffusion
12 Ondes Electriques
13 Dai 6 Maku- Onegai! Haniwaccha!!
14 Animal Sauvage
15 Dai 7 Maku- Kozue Dake No Miki
16 Icone
17 Croix
18 Tentation
19 Dai 8 Maku-Fukaki Ruriiro No Kage
20 Terre Promise
21 Konnichiwa Aka-Chan
22 Yoake No Scatt
23 Dona Dona
24 Dai 9 Maku - Lucifer No Wana (Drama)
25 Confession
26 Pretre
27 Redemption
28 Dai 10 Maku - Sekai Wo Kakumei Suru
29 Fruit Defendu
30 Dai 11 Maku - Watashi No Ouji-Sama
31 Baiser
32 Dai 12 Maku - Itsuka Issho Ni Kagaya
33 Rose&Release (karaoke)
34 Dai 13 Maku - Watashi To Anata Ga
Total time 57:22
CD 6 Allez, prends moi pour fiancee
01 Bara no Kokuin no Tegami I (INSTRUMENTAL)
02 Tsuyoku Kedakaku
03 Ouji-sama ga Ii
04 Sekai wo Kakumei Suru tame ni I
05 Zettai Unmei Mokushiroku II
06 Bara no Hanayome
07 Kagee Shoujo I
08 WELCOME II
09 EYE CATCHER
10 Butoukai no Yoru ni
11 DUELIST
12 Onna no Ko no Kisetsu
13 Hana no Nai Bara
14 Mamotte Hoshii
15 Arigatou Ai wo
16 Rondo revolution (TV Size)
Total time 40:32
CD7 Visite au Nirvana de la boeaute
01 Zettai Unmei Mokushiroku (Adolesence Cover)
02 SEGA SATURN opening inst
03 Rinbu - Revolution [Full Version]
04 Gakuen no Scarlet
05 Arasou no Jouka e
06 Sekai Wo Kakumei Suru Tame Ni
07 Zettai Unmei Mokushiroku [Musical Version]
08 Spira Mirabilis Gekijou
09 Tenshi Souzou Sunawachi Hikari with Banyu Inryoku
10 Eyecatcher
11 Nemuro Kinenkan
12 Watashi Kuusou Seimeitai
13 Virtual Star Hasseigaku (TV Size)
14 Subtitle
15 Butou no Eros
16 Chikyuu wa Jinbutsu Retsusushitsu
17 Watashi Banbutsu Hyaku Fushigi
18 Jikai Yokoku
19 Gakuen no Lyric
20 Onna no Ko no Kisetsu
21 Eyecatcher 2
22 Poison
23 Akio Car
24 Orpheus
25 Sofia
26 Baiser
27 Arigatou Ai Wo
28 Truth [Full Version]
29 The movie flash prelude
Total time 1:01:07
CD8 Sophia, la ressurection des Rose d'oeuf
01 Rose is rain
02 ASTRAGALOUS Chikyuu Sugoroku
03 Rekishi Bourou Moji Sabaku
04 PETIT Banshou no Seimei Kodokushi
05 Sekai Roudan no Yurikago de -IN THE HANDS OF THE WORLD-
06 Suiteki Sunawachi Banyuu Shigen
07 Kaigetsu Ai ni Shisu
08 Zettai Biwaku DAS EROTICA
09 DEFORME - DEJA VU
10 REMINISCENCE no METAMORPHOSIS (Kouya yori)
11 SHURA -Nikutai Seiza ALPHA PSI ZETA Seiun-
12 Warera Mizukara wo Kiteta Datenshi Nari
13 Yomigaere! Mukyuu no Rekishi Chuusei yo
Total time 1:15:02
CD9 Le rush de l'adolescence
01 ROSE IS RAIN Bara Tamago Sosei Roku
02 SCARLET-tachi no Butou ~ Saikai
03 Bara no Kokuin ~ Kuuchuu Teien no Hanayome
04 DUELIST ~ Yomigaere! Mukyuu no Rekishi Chuusei yo
05 ILLUSION ~ Akui no Sanagi
06 BELLADONNA no Wana
07 Toki ni Ai wa
08 Akio Enbukyoku ~ VIDEO na Kioku
09 Bara no Rashin ~ SHURA -Nikutai Seiza ALPHA PSI ZETA Seiun-
10 ABRAXAS ~ Hikari Sasu Niwa
11 Zettai Unmei Mokushiroku - Adolescence of UTENA
12 Kessen ~ BELZEBUL no Oujou
13 Rondo - revolution ~ ADOLESCENCE RUSH
14 FIANCEE ni Naritai -Symphonic Instrumental-
Total time 58:35
CD10 Le bal de la destinee absolue - UTENA in the CLUB -
01 Club Mix "Rinbu-Revolution Vocal Medley"
02 Techno "Hikarisasu Niwa" 2
03 Bossa Nova "Zettai Unmei Mikushiroku"
04 Samba "Shoujo Kakumei.Overture"
05 Dark Mix "Kagee Shoujo"
06 Mambo "Shi no Shi no Aphrodite"
07 Hawaiian "Densetsu.Kami no Na wa Abraxas"
08 Club Mix "Zettai Unmei Mokushiroku J.A.Cesar Medley"
09 Bossa Nova "Zettai Unmei Mikushiroku" (Karaoke)
10 Club Mix "Zettai Unmei Mikushiroku Simple Edit"
Total time 48:35
Доп. информация:
Отчёт EAC CD1
Exact Audio Copy V0.99 prebeta 4 from 23. January 2008
Отчёт EAC об извлечении, выполненном 11. мая 2009, 16:37
Shinkichi Mitsumune / Utena CD Box CD1 A la veille d'une reolution absolue
Дисковод: PLEXTOR BD-R PX-B900A Adapter: 1 ID: 0
Режим чтения : Достоверность
Использование точного потока : Да
Отключение кэша аудио : Да
Использование указателей C2 : Нет
Коррекция смещения при чтении : 102
Способность читать области Lead-in и Lead-out : Нет
Заполнение пропущенных сэмплов тишиной : Да
Удаление блоков с тишиной в начале и конце : Нет
При вычислениях CRC использовались нулевые сэмплы : Нет
Интерфейс : Встроенный Win32-интерфейс для Win NT/2000
Обработка зазоров : Добавлено к предыдущему треку
Выходной формат : Пользовательский кодировщик
Выбранный битрейт : 768 kBit/s
Качество : Высокий
Добавление ID3-тэга : Нет
Утилита сжатия : C:\Program Files\Exact Audio Copy\Flac\flac.exe
Дополнительные параметры : -V -8 -T "artist=%a" -T "title=%t" -T "album=%g" -T "date=%y" -T "tracknumber=%n" -T "genre=%m" %s
TOC извлечённого CD
Трек | Старт | Длительность | Начальный сектор | Конечный сектор
---------------------------------------------------------------------
1 | 0:00.00 | 2:37.25 | 0 | 11799
2 | 2:37.25 | 4:35.58 | 11800 | 32482
3 | 7:13.08 | 0:13.19 | 32483 | 33476
4 | 7:26.27 | 1:43.66 | 33477 | 41267
5 | 9:10.18 | 1:50.62 | 41268 | 49579
6 | 11:01.05 | 1:10.05 | 49580 | 54834
7 | 12:11.10 | 2:11.69 | 54835 | 64728
8 | 14:23.04 | 2:21.25 | 64729 | 75328
9 | 16:44.29 | 1:40.67 | 75329 | 82895
10 | 18:25.21 | 2:16.50 | 82896 | 93145
11 | 20:41.71 | 1:42.18 | 93146 | 100813
12 | 22:24.14 | 1:53.72 | 100814 | 109360
13 | 24:18.11 | 1:19.51 | 109361 | 115336
14 | 25:37.62 | 1:28.40 | 115337 | 121976
15 | 27:06.27 | 1:54.37 | 121977 | 130563
16 | 29:00.64 | 1:51.11 | 130564 | 138899
17 | 30:52.00 | 1:24.20 | 138900 | 145219
18 | 32:16.20 | 2:10.64 | 145220 | 155033
19 | 34:27.09 | 1:41.00 | 155034 | 162608
20 | 36:08.09 | 1:12.59 | 162609 | 168067
21 | 37:20.68 | 0:22.21 | 168068 | 169738
22 | 37:43.14 | 2:11.15 | 169739 | 179578
23 | 39:54.29 | 2:35.38 | 179579 | 191241
24 | 42:29.67 | 2:00.02 | 191242 | 200243
25 | 44:29.69 | 2:12.11 | 200244 | 210154
26 | 46:42.05 | 1:40.36 | 210155 | 217690
27 | 48:22.41 | 2:03.63 | 217691 | 226978
28 | 50:26.29 | 2:12.01 | 226979 | 236879
29 | 52:38.30 | 2:05.09 | 236880 | 246263
30 | 54:43.39 | 2:06.52 | 246264 | 255765
31 | 56:50.16 | 1:43.15 | 255766 | 263505
32 | 58:33.31 | 3:08.13 | 263506 | 277618
33 | 61:41.44 | 2:05.64 | 277619 | 287057
34 | 63:47.33 | 0:33.32 | 287058 | 289564
35 | 64:20.65 | 4:27.13 | 289565 | 309602
36 | 68:48.03 | 2:34.23 | 309603 | 321175
Трек 1
Имя файла C:\Downloads\Utena CD Box\CD1\01 - Shoujo Kakumei - overture.wav
Длина предзазора 0:00:02.00
Пиковый уровень 99.9 %
Качество трека 100.0 %
CRC теста DF934831
CRC копии DF934831
Копирование... OK
Трек 2
Имя файла C:\Downloads\Utena CD Box\CD1\02 - Rinbu - revolution.wav
Длина предзазора 0:00:01.57
Пиковый уровень 96.6 %
Качество трека 100.0 %
CRC теста CA215FEF
CRC копии CA215FEF
Копирование... OK
Трек 3
Имя файла C:\Downloads\Utena CD Box\CD1\03 - Subtitle.wav
Длина предзазора 0:00:02.43
Пиковый уровень 99.8 %
Качество трека 100.0 %
CRC теста 6A7F90E1
CRC копии 6A7F90E1
Копирование... OK
Трек 4
Имя файла C:\Downloads\Utena CD Box\CD1\04 - Hikarisasu Niwa.wav
Длина предзазора 0:00:02.38
Пиковый уровень 92.1 %
Качество трека 100.0 %
CRC теста 554A3B2E
CRC копии 554A3B2E
Копирование... OK
Трек 5
Имя файла C:\Downloads\Utena CD Box\CD1\05 - Gakuen no Scarlet (Utena no Theme).wav
Длина предзазора 0:00:02.17
Пиковый уровень 99.8 %
Качество трека 100.0 %
CRC теста 49C5D595
CRC копии 49C5D595
Копирование... OK
Трек 6
Имя файла C:\Downloads\Utena CD Box\CD1\06 - Gakuen no Lyrics.wav
Длина предзазора 0:00:02.13
Пиковый уровень 92.8 %
Качество трека 99.8 %
CRC теста 5042EFAB
CRC копии 5042EFAB
Копирование... OK
Трек 7
Имя файла C:\Downloads\Utena CD Box\CD1\07 - Jab Up Beauty.wav
Длина предзазора 0:00:02.47
Пиковый уровень 99.8 %
Качество трека 100.0 %
CRC теста 3EB7B1DE
CRC копии 3EB7B1DE
Копирование... OK
Трек 8
Имя файла C:\Downloads\Utena CD Box\CD1\08 - Bara no Tameiki (Anthy no Theme).wav
Длина предзазора 0:00:02.02
Пиковый уровень 65.2 %
Качество трека 100.0 %
CRC теста 5E965AC3
CRC копии 5E965AC3
Копирование... OK
Трек 9
Имя файла C:\Downloads\Utena CD Box\CD1\09 - Yuuga na Kanojo.wav
Длина предзазора 0:00:02.02
Пиковый уровень 78.9 %
Качество трека 100.0 %
CRC теста 501C1DF1
CRC копии 501C1DF1
Копирование... OK
Трек 10
Имя файла C:\Downloads\Utena CD Box\CD1\10 - Sono Kanojo no Higeki.wav
Длина предзазора 0:00:02.38
Пиковый уровень 92.4 %
Качество трека 100.0 %
CRC теста D0731B9F
CRC копии D0731B9F
Копирование... OK
Трек 11
Имя файла C:\Downloads\Utena CD Box\CD1\11 - Butou no Eros.wav
Длина предзазора 0:00:02.45
Пиковый уровень 98.7 %
Качество трека 100.0 %
CRC теста 6C54FB07
CRC копии 6C54FB07
Копирование... OK
Трек 12
Имя файла C:\Downloads\Utena CD Box\CD1\12 - Kokoro no DICE.wav
Длина предзазора 0:00:02.09
Пиковый уровень 99.8 %
Качество трека 100.0 %
CRC теста 8DBB0243
CRC копии 8DBB0243
Копирование... OK
Трек 13
Имя файла C:\Downloads\Utena CD Box\CD1\13 - Mienai Bara.wav
Длина предзазора 0:00:02.07
Пиковый уровень 96.8 %
Качество трека 99.8 %
CRC теста 667EE541
CRC копии 667EE541
Копирование... OK
Трек 14
Имя файла C:\Downloads\Utena CD Box\CD1\14 - Tsuioku no Rakuen.wav
Длина предзазора 0:00:02.21
Пиковый уровень 64.8 %
Качество трека 100.0 %
CRC теста C3732B77
CRC копии C3732B77
Копирование... OK
Трек 15
Имя файла C:\Downloads\Utena CD Box\CD1\15 - Shi no Aphrodite.wav
Длина предзазора 0:00:02.14
Пиковый уровень 91.3 %
Качество трека 100.0 %
CRC теста FCCF1B55
CRC копии FCCF1B55
Копирование... OK
Трек 16
Имя файла C:\Downloads\Utena CD Box\CD1\16 - Hikarisasu Niwa - Illusion.wav
Длина предзазора 0:00:02.17
Пиковый уровень 91.3 %
Качество трека 100.0 %
CRC теста 8728E092
CRC копии 8728E092
Копирование... OK
Трек 17
Имя файла C:\Downloads\Utena CD Box\CD1\17 - Taiyou wo Iru Mono.wav
Длина предзазора 0:00:02.45
Пиковый уровень 99.8 %
Качество трека 100.0 %
CRC теста E709F8A5
CRC копии E709F8A5
Копирование... OK
Трек 18
Имя файла C:\Downloads\Utena CD Box\CD1\18 - Passionate.wav
Длина предзазора 0:00:02.19
Пиковый уровень 99.4 %
Качество трека 99.9 %
CRC теста 49238FCD
CRC копии 49238FCD
Копирование... OK
Трек 19
Имя файла C:\Downloads\Utena CD Box\CD1\19 - Kioku no Idea.wav
Длина предзазора 0:00:02.19
Пиковый уровень 81.3 %
Качество трека 100.0 %
CRC теста 1F7D002A
CRC копии 1F7D002A
Копирование... OK
Трек 20
Имя файла C:\Downloads\Utena CD Box\CD1\20 - Densetsu - Kami no Na ha Abraxas.wav
Длина предзазора 0:00:01.66
Пиковый уровень 100.0 %
Качество трека 100.0 %
CRC теста D40DA498
CRC копии D40DA498
Копирование... OK
Трек 21
Имя файла C:\Downloads\Utena CD Box\CD1\21 - Eye Catch.wav
Длина предзазора 0:00:02.36
Пиковый уровень 98.9 %
Качество трека 100.0 %
CRC теста 34B4217F
CRC копии 34B4217F
Копирование... OK
Трек 22
Имя файла C:\Downloads\Utena CD Box\CD1\22 - Kashira Seijin (Kagee Shoujo no Theme).wav
Длина предзазора 0:00:02.44
Пиковый уровень 100.0 %
Качество трека 100.0 %
CRC теста E55B9B87
CRC копии E55B9B87
Копирование... OK
Трек 23
Имя файла C:\Downloads\Utena CD Box\CD1\23 - Zettai Unmei Mokushiroku.wav
Длина предзазора 0:00:02.26
Пиковый уровень 100.0 %
Качество трека 100.0 %
CRC теста 1636270F
CRC копии 1636270F
Копирование... OK
Трек 24
Имя файла C:\Downloads\Utena CD Box\CD1\24 - Kettousha tachi.wav
Длина предзазора 0:00:02.25
Пиковый уровень 99.7 %
Качество трека 100.0 %
CRC теста DB20A714
CRC копии DB20A714
Копирование... OK
Трек 25
Имя файла C:\Downloads\Utena CD Box\CD1\25 - Dios he no Inori.wav
Длина предзазора 0:00:01.68
Пиковый уровень 95.4 %
Качество трека 99.9 %
CRC теста 6DCA947E
CRC копии 6DCA947E
Копирование... OK
Трек 26
Имя файла C:\Downloads\Utena CD Box\CD1\26 - When Where Who Which.wav
Длина предзазора 0:00:03.09
Пиковый уровень 99.8 %
Качество трека 100.0 %
CRC теста 66B1E705
CRC копии 66B1E705
Копирование... OK
Трек 27
Имя файла C:\Downloads\Utena CD Box\CD1\27 - Nikutai no Naka no Koseidai.wav
Длина предзазора 0:00:02.35
Пиковый уровень 99.9 %
Качество трека 99.9 %
CRC теста 9F086C67
CRC копии 9F086C67
Копирование... OK
Трек 28
Имя файла C:\Downloads\Utena CD Box\CD1\28 - Spira Mirabilis Gekijou.wav
Длина предзазора 0:00:02.67
Пиковый уровень 99.8 %
Качество трека 100.0 %
CRC теста 5899DB0E
CRC копии 5899DB0E
Копирование... OK
Трек 29
Имя файла C:\Downloads\Utena CD Box\CD1\29 - Tenshi Souzou Sunawachi Hikari.wav
Длина предзазора 0:00:02.07
Пиковый уровень 99.9 %
Качество трека 100.0 %
CRC теста 9C5D9C81
CRC копии 9C5D9C81
Копирование... OK
Трек 30
Имя файла C:\Downloads\Utena CD Box\CD1\30 - Last Evolution (Zettai Shinka Kakumei).wav
Длина предзазора 0:00:02.44
Пиковый уровень 99.8 %
Качество трека 100.0 %
CRC теста FF0E1234
CRC копии FF0E1234
Копирование... OK
Трек 31
Имя файла C:\Downloads\Utena CD Box\CD1\31 - Fuuin Jubaku.wav
Длина предзазора 0:00:02.29
Пиковый уровень 99.8 %
Качество трека 100.0 %
CRC теста BDF57FA8
CRC копии BDF57FA8
Копирование... OK
Трек 32
Имя файла C:\Downloads\Utena CD Box\CD1\32 - Nanibito Mo Kataru Koto Nashi.wav
Длина предзазора 0:00:02.11
Пиковый уровень 99.8 %
Качество трека 100.0 %
CRC теста E4DC1223
CRC копии E4DC1223
Копирование... OK
Трек 33
Имя файла C:\Downloads\Utena CD Box\CD1\33 - Zettai Unmei Mokushiroku (industrial mix).wav
Длина предзазора 0:00:00.44
Пиковый уровень 99.8 %
Качество трека 99.9 %
CRC теста D90CB8C2
CRC копии D90CB8C2
Копирование... OK
Трек 34
Имя файла C:\Downloads\Utena CD Box\CD1\34 - Jikai Yokoku.wav
Длина предзазора 0:00:02.51
Пиковый уровень 99.8 %
Качество трека 100.0 %
CRC теста F66FFBF7
CRC копии F66FFBF7
Копирование... OK
Трек 35
Имя файла C:\Downloads\Utena CD Box\CD1\35 - Truth.wav
Длина предзазора 0:00:02.15
Пиковый уровень 97.7 %
Качество трека 100.0 %
CRC теста 2BF6F4CB
CRC копии 2BF6F4CB
Копирование... OK
Трек 36
Имя файла C:\Downloads\Utena CD Box\CD1\36 - Zettai Unmei Mokushiroku(karaoke).wav
Длина предзазора 0:00:02.28
Пиковый уровень 99.8 %
Качество трека 100.0 %
CRC теста 1C596657
CRC копии 1C596657
Копирование... OK
Ошибок не произошло
Конец отчёта
Отчёт EAC CD2
Exact Audio Copy V0.99 prebeta 4 from 23. January 2008
Отчёт EAC об извлечении, выполненном 21. апреля 2009, 19:42
Shinkichi Mitsumune / Embryologie d'eoile virtuelle
Дисковод: PLEXTOR BD-R PX-B900A Adapter: 1 ID: 0
Режим чтения : Достоверность
Использование точного потока : Да
Отключение кэша аудио : Да
Использование указателей C2 : Нет
Коррекция смещения при чтении : 102
Способность читать области Lead-in и Lead-out : Нет
Заполнение пропущенных сэмплов тишиной : Да
Удаление блоков с тишиной в начале и конце : Нет
При вычислениях CRC использовались нулевые сэмплы : Нет
Интерфейс : Встроенный Win32-интерфейс для Win NT/2000
Обработка зазоров : Добавлено к предыдущему треку
Выходной формат : Пользовательский кодировщик
Выбранный битрейт : 768 kBit/s
Качество : Высокий
Добавление ID3-тэга : Нет
Утилита сжатия : C:\Program Files\Exact Audio Copy\Flac\flac.exe
Дополнительные параметры : -V -8 -T "artist=%a" -T "title=%t" -T "album=%g" -T "date=%y" -T "tracknumber=%n" -T "genre=%m" %s
TOC извлечённого CD
Трек | Старт | Длительность | Начальный сектор | Конечный сектор
---------------------------------------------------------------------
1 | 0:00.00 | 4:08.31 | 0 | 18630
2 | 4:08.31 | 1:25.14 | 18631 | 25019
3 | 5:33.45 | 2:04.18 | 25020 | 34337
4 | 7:37.63 | 1:52.22 | 34338 | 42759
5 | 9:30.10 | 1:34.56 | 42760 | 49865
6 | 11:04.66 | 1:45.40 | 49866 | 57780
7 | 12:50.31 | 1:38.06 | 57781 | 65136
8 | 14:28.37 | 1:35.69 | 65137 | 72330
9 | 16:04.31 | 3:44.69 | 72331 | 89199
10 | 19:49.25 | 1:10.20 | 89200 | 94469
11 | 20:59.45 | 2:40.42 | 94470 | 106511
12 | 23:40.12 | 1:22.65 | 106512 | 112726
13 | 25:03.02 | 2:01.21 | 112727 | 121822
14 | 27:04.23 | 2:56.46 | 121823 | 135068
15 | 30:00.69 | 1:58.07 | 135069 | 143925
16 | 31:59.01 | 2:28.12 | 143926 | 155037
17 | 34:27.13 | 2:24.26 | 155038 | 165863
18 | 36:51.39 | 2:16.39 | 165864 | 176102
19 | 39:08.03 | 1:55.64 | 176103 | 184791
20 | 41:03.67 | 1:46.46 | 184792 | 192787
21 | 42:50.38 | 3:43.38 | 192788 | 209550
22 | 46:34.01 | 1:50.55 | 209551 | 217855
23 | 48:24.56 | 2:33.62 | 217856 | 229392
24 | 50:58.43 | 1:34.20 | 229393 | 236462
25 | 52:32.63 | 2:49.53 | 236463 | 249190
26 | 55:22.41 | 1:16.64 | 249191 | 254954
27 | 56:39.30 | 1:18.51 | 254955 | 260855
28 | 57:58.06 | 4:08.01 | 260856 | 279456
Трек 1
Имя файла C:\Downloads\CD2\01 - Virtual Star Hasseigaku.wav
Длина предзазора 0:00:02.00
Пиковый уровень 99.8 %
Качество трека 100.0 %
CRC теста ED811D2B
CRC копии ED811D2B
Копирование... OK
Трек 2
Имя файла C:\Downloads\CD2\02 - Fujingekiron Gattaijutsu.wav
Пиковый уровень 99.5 %
Качество трека 100.0 %
CRC теста 66E9F2E4
CRC копии 66E9F2E4
Копирование... OK
Трек 3
Имя файла C:\Downloads\CD2\03 - Kakuu Kakokei Majinai.wav
Пиковый уровень 99.5 %
Качество трека 100.0 %
CRC теста FB179E32
CRC копии FB179E32
Копирование... OK
Трек 4
Имя файла C:\Downloads\CD2\04 - Chikyuu Wa Jinbutsu Chinretsushitsu.wav
Пиковый уровень 99.6 %
Качество трека 100.0 %
CRC теста E0F5027C
CRC копии E0F5027C
Копирование... OK
Трек 5
Имя файла C:\Downloads\CD2\05 - Ensuikei Zettairan Algebra.wav
Пиковый уровень 99.5 %
Качество трека 100.0 %
CRC теста C8108969
CRC копии C8108969
Копирование... OK
Трек 6
Имя файла C:\Downloads\CD2\06 - Senjuku Nenrei Toumeiki.wav
Пиковый уровень 99.6 %
Качество трека 100.0 %
CRC теста 1422E5BF
CRC копии 1422E5BF
Копирование... OK
Трек 7
Имя файла C:\Downloads\CD2\07 - Gentouchouga Juuroku Seiki.wav
Пиковый уровень 99.5 %
Качество трека 100.0 %
CRC теста C61BC1D2
CRC копии C61BC1D2
Копирование... OK
Трек 8
Имя файла C:\Downloads\CD2\08 - Rinbu Revolution (TV Size).wav
Пиковый уровень 99.6 %
Качество трека 100.0 %
CRC теста 58BFFC93
CRC копии 58BFFC93
Копирование... OK
Трек 9
Имя файла C:\Downloads\CD2\09 - Shi No Aphrodite - Tsuioku.wav
Длина предзазора 0:00:03.06
Пиковый уровень 90.0 %
Качество трека 100.0 %
CRC теста 1A9727EC
CRC копии 1A9727EC
Копирование... OK
Трек 10
Имя файла C:\Downloads\CD2\10 - Hitotoki No Jouryuu.wav
Длина предзазора 0:00:01.71
Пиковый уровень 85.7 %
Качество трека 100.0 %
CRC теста 4E8135CD
CRC копии 4E8135CD
Копирование... OK
Трек 11
Имя файла C:\Downloads\CD2\11 - Houkago No Shoujo - Tachi.wav
Длина предзазора 0:00:02.01
Пиковый уровень 99.8 %
Качество трека 100.0 %
CRC теста D1884B0A
CRC копии D1884B0A
Копирование... OK
Трек 12
Имя файла C:\Downloads\CD2\12 - Panorama Ranman.wav
Длина предзазора 0:00:02.10
Пиковый уровень 99.8 %
Качество трека 100.0 %
CRC теста 190D50CD
CRC копии 190D50CD
Копирование... OK
Трек 13
Имя файла C:\Downloads\CD2\13 - Chinkonkyoku.wav
Длина предзазора 0:00:02.47
Пиковый уровень 69.6 %
Качество трека 100.0 %
CRC теста 2E9BF9E9
CRC копии 2E9BF9E9
Копирование... OK
Трек 14
Имя файла C:\Downloads\CD2\14 - Dona Dona.wav
Длина предзазора 0:00:01.67
Пиковый уровень 92.2 %
Качество трека 100.0 %
CRC теста B604D654
CRC копии B604D654
Копирование... OK
Трек 15
Имя файла C:\Downloads\CD2\15 - Hitomi No Naka No Yokan.wav
Длина предзазора 0:00:01.70
Пиковый уровень 99.1 %
Качество трека 100.0 %
CRC теста EC6B39D3
CRC копии EC6B39D3
Копирование... OK
Трек 16
Имя файла C:\Downloads\CD2\16 - Yume Wo Miru Saibou.wav
Длина предзазора 0:00:03.22
Пиковый уровень 91.0 %
Качество трека 100.0 %
CRC теста EA634312
CRC копии EA634312
Копирование... OK
Трек 17
Имя файла C:\Downloads\CD2\17 - Arasoi No Jouka E.wav
Длина предзазора 0:00:02.65
Пиковый уровень 99.6 %
Качество трека 100.0 %
CRC теста 9AEE329F
CRC копии 9AEE329F
Копирование... OK
Трек 18
Имя файла C:\Downloads\CD2\18 - Nagusami No Kyoushuu.wav
Длина предзазора 0:00:02.47
Пиковый уровень 84.5 %
Качество трека 100.0 %
CRC теста 0DCD938E
CRC копии 0DCD938E
Копирование... OK
Трек 19
Имя файла C:\Downloads\CD2\19 - Nemuro Kinenkan.wav
Длина предзазора 0:00:02.04
Пиковый уровень 89.2 %
Качество трека 100.0 %
CRC теста FA245B92
CRC копии FA245B92
Копирование... OK
Трек 20
Имя файла C:\Downloads\CD2\20 - Eien No Himitsu.wav
Длина предзазора 0:00:03.47
Пиковый уровень 91.1 %
Качество трека 100.0 %
CRC теста F63566F4
CRC копии F63566F4
Копирование... OK
Трек 21
Имя файла C:\Downloads\CD2\21 - Kokuhaku Shoukoushitsu - Kuusou No Warui Mushi.wav
Длина предзазора 0:00:02.54
Пиковый уровень 96.7 %
Качество трека 99.9 %
CRC теста DE71A11B
CRC копии DE71A11B
Копирование... OK
Трек 22
Имя файла C:\Downloads\CD2\22 - Mitsu No Knife.wav
Длина предзазора 0:00:02.01
Пиковый уровень 93.7 %
Качество трека 100.0 %
CRC теста A1322BBB
CRC копии A1322BBB
Копирование... OK
Трек 23
Имя файла C:\Downloads\CD2\23 - Gougai Shoujo (Saru).wav
Длина предзазора 0:00:02.61
Пиковый уровень 85.1 %
Качество трека 100.0 %
CRC теста 5CEECBD6
CRC копии 5CEECBD6
Копирование... OK
Трек 24
Имя файла C:\Downloads\CD2\24 - Shi No Butou.wav
Длина предзазора 0:00:02.48
Пиковый уровень 99.9 %
Качество трека 100.0 %
CRC теста 0A8CF443
CRC копии 0A8CF443
Копирование... OK
Трек 25
Имя файла C:\Downloads\CD2\25 - Zettai Unmei Mokushiroku with Banyuu Inryoku.wav
Длина предзазора 0:00:02.21
Пиковый уровень 99.8 %
Качество трека 100.0 %
CRC теста B0638CB0
CRC копии B0638CB0
Копирование... OK
Трек 26
Имя файла C:\Downloads\CD2\26 - Tsumi No Kajitsu.wav
Длина предзазора 0:00:03.15
Пиковый уровень 99.0 %
Качество трека 100.0 %
CRC теста 1F097723
CRC копии 1F097723
Копирование... OK
Трек 27
Имя файла C:\Downloads\CD2\27 - Truth (TV Size).wav
Длина предзазора 0:00:01.72
Пиковый уровень 94.4 %
Качество трека 99.8 %
CRC теста ADE974BD
CRC копии ADE974BD
Копирование... OK
Трек 28
Имя файла C:\Downloads\CD2\28 - Virtual Star Hasseigaku (Karaoke).wav
Длина предзазора 0:00:02.06
Пиковый уровень 99.9 %
Качество трека 100.0 %
CRC теста 5A3B5DE5
CRC копии 5A3B5DE5
Копирование... OK
Ошибок не произошло
Конец отчёта
Отчёт EAC CD3
Exact Audio Copy V0.99 prebeta 4 from 23. January 2008
Отчёт EAC об извлечении, выполненном 21. апреля 2009, 23:48
Shinkichi Mitsumune / L'horloge de la ville, horloge biologique
Дисковод: PLEXTOR BD-R PX-B900A Adapter: 1 ID: 0
Режим чтения : Достоверность
Использование точного потока : Да
Отключение кэша аудио : Да
Использование указателей C2 : Нет
Коррекция смещения при чтении : 102
Способность читать области Lead-in и Lead-out : Нет
Заполнение пропущенных сэмплов тишиной : Да
Удаление блоков с тишиной в начале и конце : Нет
При вычислениях CRC использовались нулевые сэмплы : Нет
Интерфейс : Встроенный Win32-интерфейс для Win NT/2000
Обработка зазоров : Добавлено к предыдущему треку
Выходной формат : Пользовательский кодировщик
Выбранный битрейт : 768 kBit/s
Качество : Высокий
Добавление ID3-тэга : Нет
Утилита сжатия : C:\Program Files\Exact Audio Copy\Flac\flac.exe
Дополнительные параметры : -V -8 -T "artist=%a" -T "title=%t" -T "album=%g" -T "date=%y" -T "tracknumber=%n" -T "genre=%m" %s
TOC извлечённого CD
Трек | Старт | Длительность | Начальный сектор | Конечный сектор
---------------------------------------------------------------------
1 | 0:00.00 | 1:18.39 | 0 | 5888
2 | 1:18.39 | 3:17.24 | 5889 | 20687
3 | 4:35.63 | 1:20.55 | 20688 | 26742
4 | 5:56.43 | 2:07.54 | 26743 | 36321
5 | 8:04.22 | 1:18.56 | 36322 | 42227
6 | 9:23.03 | 1:13.07 | 42228 | 47709
7 | 10:36.10 | 1:50.01 | 47710 | 55960
8 | 12:26.11 | 2:38.05 | 55961 | 67815
9 | 15:04.16 | 1:36.58 | 67816 | 75073
10 | 16:40.74 | 1:11.22 | 75074 | 80420
11 | 17:52.21 | 2:27.13 | 80421 | 91458
12 | 20:19.34 | 2:06.41 | 91459 | 100949
13 | 22:26.00 | 2:04.18 | 100950 | 110267
14 | 24:30.18 | 1:31.00 | 110268 | 117092
15 | 26:01.18 | 3:49.69 | 117093 | 134336
16 | 29:51.12 | 1:22.40 | 134337 | 140526
17 | 31:13.52 | 3:14.35 | 140527 | 155111
18 | 34:28.12 | 1:56.59 | 155112 | 163870
19 | 36:24.71 | 1:20.00 | 163871 | 169870
20 | 37:44.71 | 2:04.41 | 169871 | 179211
21 | 39:49.37 | 2:39.58 | 179212 | 191194
22 | 42:29.20 | 2:05.00 | 191195 | 200569
23 | 44:34.20 | 1:58.73 | 200570 | 209492
24 | 46:33.18 | 3:59.66 | 209493 | 227483
25 | 50:33.09 | 1:14.48 | 227484 | 233081
26 | 51:47.57 | 2:11.26 | 233082 | 242932
27 | 53:59.08 | 3:53.38 | 242933 | 260445
28 | 57:52.46 | 1:34.19 | 260446 | 267514
29 | 59:26.65 | 0:12.59 | 267515 | 268473
30 | 59:39.49 | 1:14.65 | 268474 | 274088
31 | 60:54.39 | 1:17.69 | 274089 | 279932
32 | 62:12.33 | 1:20.57 | 279933 | 285989
33 | 63:33.15 | 0:13.68 | 285990 | 287032
Трек 1
Имя файла C:\Downloads\CD3\01 - Poison.wav
Длина предзазора 0:00:02.00
Пиковый уровень 95.2 %
Качество трека 100.0 %
CRC теста CEDCF015
CRC копии CEDCF015
Копирование... OK
Трек 2
Имя файла C:\Downloads\CD3\02 - Watashi Kuusou Seimeitai.wav
Длина предзазора 0:00:02.49
Пиковый уровень 99.8 %
Качество трека 100.0 %
CRC теста 480C94F3
CRC копии 480C94F3
Копирование... OK
Трек 3
Имя файла C:\Downloads\CD3\03 - Morning lyrical.wav
Длина предзазора 0:00:02.22
Пиковый уровень 90.0 %
Качество трека 100.0 %
CRC теста 3EA232CC
CRC копии 3EA232CC
Копирование... OK
Трек 4
Имя файла C:\Downloads\CD3\04 - Victory.wav
Пиковый уровень 99.8 %
Качество трека 100.0 %
CRC теста A53D7D25
CRC копии A53D7D25
Копирование... OK
Трек 5
Имя файла C:\Downloads\CD3\05 - Evergreen memory.wav
Пиковый уровень 80.2 %
Качество трека 100.0 %
CRC теста 7C7F2C44
CRC копии 7C7F2C44
Копирование... OK
Трек 6
Имя файла C:\Downloads\CD3\06 - Nova.wav
Пиковый уровень 97.1 %
Качество трека 100.0 %
CRC теста FE863556
CRC копии FE863556
Копирование... OK
Трек 7
Имя файла C:\Downloads\CD3\07 - Virtual Star Hasseigaku (Banyuu Inryoku).wav
Длина предзазора 0:00:02.12
Пиковый уровень 99.9 %
Качество трека 100.0 %
CRC теста 7C89E10B
CRC копии 7C89E10B
Копирование... OK
Трек 8
Имя файла C:\Downloads\CD3\08 - Pessimism.wav
Длина предзазора 0:00:02.36
Пиковый уровень 90.6 %
Качество трека 99.9 %
CRC теста 335E6A54
CRC копии 335E6A54
Копирование... OK
Трек 9
Имя файла C:\Downloads\CD3\09 - Possession.wav
Пиковый уровень 76.5 %
Качество трека 100.0 %
CRC теста E47C8E39
CRC копии E47C8E39
Копирование... OK
Трек 10
Имя файла C:\Downloads\CD3\10 - Bluebeard.wav
Пиковый уровень 97.9 %
Качество трека 100.0 %
CRC теста 31338204
CRC копии 31338204
Копирование... OK
Трек 11
Имя файла C:\Downloads\CD3\11 - Heizoku Uchuu Ni Fumetsu No Koutei.wav
Длина предзазора 0:00:02.05
Пиковый уровень 99.8 %
Качество трека 100.0 %
CRC теста 1F0758C5
CRC копии 1F0758C5
Копирование... OK
Трек 12
Имя файла C:\Downloads\CD3\12 - Tenderness.wav
Длина предзазора 0:00:02.33
Пиковый уровень 90.9 %
Качество трека 100.0 %
CRC теста BC909AF5
CRC копии BC909AF5
Копирование... OK
Трек 13
Имя файла C:\Downloads\CD3\13 - Campas Dandy.wav
Пиковый уровень 99.9 %
Качество трека 100.0 %
CRC теста F63043B4
CRC копии F63043B4
Копирование... OK
Трек 14
Имя файла C:\Downloads\CD3\14 - Temptation.wav
Пиковый уровень 99.6 %
Качество трека 99.8 %
CRC теста A91FD55E
CRC копии A91FD55E
Копирование... OK
Трек 15
Имя файла C:\Downloads\CD3\15 - Tenshi Androgynous (the Angel Androgynous).wav
Длина предзазора 0:00:02.17
Пиковый уровень 99.8 %
Качество трека 100.0 %
CRC теста A33B83F6
CRC копии A33B83F6
Копирование... OK
Трек 16
Имя файла C:\Downloads\CD3\16 - Suspicion.wav
Длина предзазора 0:00:02.69
Пиковый уровень 96.3 %
Качество трека 100.0 %
CRC теста 5EA87EB2
CRC копии 5EA87EB2
Копирование... OK
Трек 17
Имя файла C:\Downloads\CD3\17 - Watashi Banbatsu Hyaku Fushigi.wav
Длина предзазора 0:00:02.41
Пиковый уровень 99.8 %
Качество трека 100.0 %
CRC теста 9EED86CC
CRC копии 9EED86CC
Копирование... OK
Трек 18
Имя файла C:\Downloads\CD3\18 - Aphrodite scat.wav
Длина предзазора 0:00:02.63
Пиковый уровень 83.4 %
Качество трека 100.0 %
CRC теста 729D958F
CRC копии 729D958F
Копирование... OK
Трек 19
Имя файла C:\Downloads\CD3\19 - Ambition.wav
Пиковый уровень 99.8 %
Качество трека 99.8 %
CRC теста 5C1A613C
CRC копии 5C1A613C
Копирование... OK
Трек 20
Имя файла C:\Downloads\CD3\20 - Alien Girl.wav
Пиковый уровень 89.8 %
Качество трека 99.9 %
CRC теста 531A1B4A
CRC копии 531A1B4A
Копирование... OK
Трек 21
Имя файла C:\Downloads\CD3\21 - Tennen Douhou Kyuden Enkinhou No Sho.wav
Длина предзазора 0:00:02.07
Пиковый уровень 99.8 %
Качество трека 100.0 %
CRC теста 3B30769E
CRC копии 3B30769E
Копирование... OK
Трек 22
Имя файла C:\Downloads\CD3\22 - Akio car.wav
Длина предзазора 0:00:02.05
Пиковый уровень 99.8 %
Качество трека 100.0 %
CRC теста CEB49288
CRC копии CEB49288
Копирование... OK
Трек 23
Имя файла C:\Downloads\CD3\23 - Picaresque.wav
Пиковый уровень 99.8 %
Качество трека 100.0 %
CRC теста 95DEA9D1
CRC копии 95DEA9D1
Копирование... OK
Трек 24
Имя файла C:\Downloads\CD3\24 - Guui Guuwa Guuest.wav
Длина предзазора 0:00:02.46
Пиковый уровень 99.9 %
Качество трека 100.0 %
CRC теста E3557C77
CRC копии E3557C77
Копирование... OK
Трек 25
Имя файла C:\Downloads\CD3\25 - Orpheus.wav
Длина предзазора 0:00:02.51
Пиковый уровень 99.4 %
Качество трека 100.0 %
CRC теста C62A7871
CRC копии C62A7871
Копирование... OK
Трек 26
Имя файла C:\Downloads\CD3\26 - Shine.wav
Пиковый уровень 67.5 %
Качество трека 100.0 %
CRC теста ACBC9859
CRC копии ACBC9859
Копирование... OK
Трек 27
Имя файла C:\Downloads\CD3\27 - Tainai Tokei Toshi Oruroi.wav
Длина предзазора 0:00:02.69
Пиковый уровень 99.9 %
Качество трека 100.0 %
CRC теста F78B0F34
CRC копии F78B0F34
Копирование... OK
Трек 28
Имя файла C:\Downloads\CD3\28 - Rose and Release (Bonus Track).wav
Длина предзазора 0:00:02.38
Пиковый уровень 99.9 %
Качество трека 100.0 %
CRC теста 5338AE83
CRC копии 5338AE83
Копирование... OK
Трек 29
Имя файла C:\Downloads\CD3\29 - Eye Catcher A.wav
Длина предзазора 0:00:02.56
Пиковый уровень 99.8 %
Качество трека 100.0 %
CRC теста F83BF9A6
CRC копии F83BF9A6
Копирование... OK
Трек 30
Имя файла C:\Downloads\CD3\30 - Gertsen No Kubi.wav
Длина предзазора 0:00:02.36
Пиковый уровень 99.9 %
Качество трека 100.0 %
CRC теста 74103FDF
CRC копии 74103FDF
Копирование... OK
Трек 31
Имя файла C:\Downloads\CD3\31 - Sakasama Boku to Boku No Heya.wav
Длина предзазора 0:00:02.43
Пиковый уровень 99.8 %
Качество трека 100.0 %
CRC теста C4B2E2A9
CRC копии C4B2E2A9
Копирование... OK
Трек 32
Имя файла C:\Downloads\CD3\32 - Virtual Star Hasseigaku (TV Size).wav
Длина предзазора 0:00:02.32
Пиковый уровень 99.9 %
Качество трека 100.0 %
CRC теста C4A165A1
CRC копии C4A165A1
Копирование... OK
Трек 33
Имя файла C:\Downloads\CD3\33 - Eye Catcher B.wav
Длина предзазора 0:00:04.27
Пиковый уровень 82.0 %
Качество трека 100.0 %
CRC теста 2F7D94CF
CRC копии 2F7D94CF
Копирование... OK
Ошибок не произошло
Конец отчёта
Отчёт EAC CD4
Exact Audio Copy V0.99 prebeta 4 from 23. January 2008
Отчёт EAC об извлечении, выполненном 23. апреля 2009, 22:12
Shinkichi Mitsumune / L'horloge de la ville, horloge biologique
Дисковод: PLEXTOR BD-R PX-B900A Adapter: 1 ID: 0
Режим чтения : Достоверность
Использование точного потока : Да
Отключение кэша аудио : Да
Использование указателей C2 : Нет
Коррекция смещения при чтении : 102
Способность читать области Lead-in и Lead-out : Нет
Заполнение пропущенных сэмплов тишиной : Да
Удаление блоков с тишиной в начале и конце : Нет
При вычислениях CRC использовались нулевые сэмплы : Нет
Интерфейс : Встроенный Win32-интерфейс для Win NT/2000
Обработка зазоров : Добавлено к предыдущему треку
Выходной формат : Пользовательский кодировщик
Выбранный битрейт : 768 kBit/s
Качество : Высокий
Добавление ID3-тэга : Нет
Утилита сжатия : C:\Program Files\Exact Audio Copy\Flac\flac.exe
Дополнительные параметры : -V -8 -T "artist=%a" -T "title=%t" -T "album=%g" -T "date=%y" -T "tracknumber=%n" -T "genre=%m" %s
TOC извлечённого CD
Трек | Старт | Длительность | Начальный сектор | Конечный сектор
---------------------------------------------------------------------
1 | 0:00.00 | 2:15.65 | 0 | 10189
2 | 2:15.65 | 4:28.11 | 10190 | 30300
3 | 6:44.01 | 3:08.61 | 30301 | 44461
4 | 9:52.62 | 4:26.40 | 44462 | 64451
5 | 14:19.27 | 4:14.65 | 64452 | 83566
6 | 18:34.17 | 2:00.44 | 83567 | 92610
7 | 20:34.61 | 2:37.65 | 92611 | 104450
8 | 23:12.51 | 3:06.07 | 104451 | 118407
9 | 26:18.58 | 3:51.50 | 118408 | 135782
10 | 30:10.33 | 2:48.11 | 135783 | 148393
11 | 32:58.44 | 2:16.72 | 148394 | 158665
12 | 35:15.41 | 2:15.47 | 158666 | 168837
Трек 1
Имя файла C:\Downloads\CD4\01 - Last Evolution - Shinka Kakumei Zenya.wav
Длина предзазора 0:00:02.00
Пиковый уровень 99.8 %
Качество трека 100.0 %
CRC теста 411767F2
CRC копии 411767F2
Копирование... OK
Трек 2
Имя файла C:\Downloads\CD4\02 - Nikutai no Naka no Koseidai.wav
Длина предзазора 0:00:03.57
Пиковый уровень 99.9 %
Качество трека 100.0 %
CRC теста 10934F26
CRC копии 10934F26
Копирование... OK
Трек 3
Имя файла C:\Downloads\CD4\03 - Chikyuu wa Jinbutsu Chinretsushitsu.wav
Длина предзазора 0:00:03.40
Пиковый уровень 99.8 %
Качество трека 100.0 %
CRC теста 44145CEF
CRC копии 44145CEF
Копирование... OK
Трек 4
Имя файла C:\Downloads\CD4\04 - Missing Link.wav
Длина предзазора 0:00:02.65
Пиковый уровень 99.9 %
Качество трека 100.0 %
CRC теста 4B2A082D
CRC копии 4B2A082D
Копирование... OK
Трек 5
Имя файла C:\Downloads\CD4\05 - Nanibito mo Kataru Koto Nashi.wav
Длина предзазора 0:00:02.36
Пиковый уровень 99.8 %
Качество трека 100.0 %
CRC теста 61C0A87B
CRC копии 61C0A87B
Копирование... OK
Трек 6
Имя файла C:\Downloads\CD4\06 - W no Yogen.wav
Длина предзазора 0:00:03.18
Пиковый уровень 99.9 %
Качество трека 100.0 %
CRC теста EB1AD4B0
CRC копии EB1AD4B0
Копирование... OK
Трек 7
Имя файла C:\Downloads\CD4\07 - Kakuu Kakokei Majinai.wav
Длина предзазора 0:00:02.27
Пиковый уровень 99.8 %
Качество трека 100.0 %
CRC теста 8B107E6E
CRC копии 8B107E6E
Копирование... OK
Трек 8
Имя файла C:\Downloads\CD4\08 - Spira Mirabilis Gekijou.wav
Длина предзазора 0:00:02.39
Пиковый уровень 99.8 %
Качество трека 100.0 %
CRC теста F5E9DAA6
CRC копии F5E9DAA6
Копирование... OK
Трек 9
Имя файла C:\Downloads\CD4\09 - Adolescence Mokushiroku (instrumental).wav
Длина предзазора 0:00:03.17
Пиковый уровень 99.9 %
Качество трека 100.0 %
CRC теста 5EF105BE
CRC копии 5EF105BE
Копирование... OK
Трек 10
Имя файла C:\Downloads\CD4\10 - Zettai Unmei Mokushiroku with Banyuu Inryoku.wav
Длина предзазора 0:00:03.00
Пиковый уровень 99.9 %
Качество трека 100.0 %
CRC теста 82BE5618
CRC копии 82BE5618
Копирование... OK
Трек 11
Имя файла C:\Downloads\CD4\11 - Tenshi Souzou Sunawachi Hikari.wav
Длина предзазора 0:00:02.23
Пиковый уровень 99.8 %
Качество трека 100.0 %
CRC теста 9EBCD9BC
CRC копии 9EBCD9BC
Копирование... OK
Трек 12
Имя файла C:\Downloads\CD4\12 - Tenshi Souzou Sunawachi Hikari (karaoke).wav
Длина предзазора 0:00:02.33
Пиковый уровень 99.8 %
Качество трека 100.0 %
CRC теста AE8B3C39
CRC копии AE8B3C39
Копирование... OK
Ошибок не произошло
Конец отчёта
Отчёт EAC CD5
Exact Audio Copy V0.99 prebeta 4 from 23. January 2008
Отчёт EAC об извлечении, выполненном 26. апреля 2009, 20:33
Shinkichi Mitsumune / La lumiere, creation des anges
Дисковод: PLEXTOR BD-R PX-B900A Adapter: 1 ID: 0
Режим чтения : Достоверность
Использование точного потока : Да
Отключение кэша аудио : Да
Использование указателей C2 : Нет
Коррекция смещения при чтении : 102
Способность читать области Lead-in и Lead-out : Нет
Заполнение пропущенных сэмплов тишиной : Да
Удаление блоков с тишиной в начале и конце : Нет
При вычислениях CRC использовались нулевые сэмплы : Нет
Интерфейс : Встроенный Win32-интерфейс для Win NT/2000
Обработка зазоров : Добавлено к предыдущему треку
Выходной формат : Пользовательский кодировщик
Выбранный битрейт : 768 kBit/s
Качество : Высокий
Добавление ID3-тэга : Нет
Утилита сжатия : C:\Program Files\Exact Audio Copy\Flac\flac.exe
Дополнительные параметры : -V -8 -T "artist=%a" -T "title=%t" -T "album=%g" -T "date=%y" -T "tracknumber=%n" -T "genre=%m" %s
TOC извлечённого CD
Трек | Старт | Длительность | Начальный сектор | Конечный сектор
---------------------------------------------------------------------
1 | 0:00.00 | 1:42.74 | 0 | 7723
2 | 1:42.74 | 3:14.20 | 7724 | 22293
3 | 4:57.19 | 0:52.54 | 22294 | 26247
4 | 5:49.73 | 1:13.12 | 26248 | 31734
5 | 7:03.10 | 0:35.49 | 31735 | 34408
6 | 7:38.59 | 1:16.07 | 34409 | 40115
7 | 8:54.66 | 0:35.74 | 40116 | 42814
8 | 9:30.65 | 1:13.42 | 42815 | 48331
9 | 10:44.32 | 0:35.66 | 48332 | 51022
10 | 11:20.23 | 2:07.03 | 51023 | 60550
11 | 13:27.26 | 2:26.70 | 60551 | 71570
12 | 15:54.21 | 1:05.03 | 71571 | 76448
13 | 16:59.24 | 1:27.18 | 76449 | 82991
14 | 18:26.42 | 1:32.51 | 82992 | 89942
15 | 19:59.18 | 0:31.70 | 89943 | 92337
16 | 20:31.13 | 2:38.54 | 92338 | 104241
17 | 23:09.67 | 2:43.62 | 104242 | 116528
18 | 25:53.54 | 1:34.23 | 116529 | 123601
19 | 27:28.02 | 2:19.74 | 123602 | 134100
20 | 29:48.01 | 1:55.26 | 134101 | 142751
21 | 31:43.27 | 2:42.04 | 142752 | 154905
22 | 34:25.31 | 3:59.33 | 154906 | 172863
23 | 38:24.64 | 3:06.41 | 172864 | 186854
24 | 41:31.30 | 1:23.08 | 186855 | 193087
25 | 42:54.38 | 1:52.03 | 193088 | 201490
26 | 44:46.41 | 1:50.44 | 201491 | 209784
27 | 46:37.10 | 1:46.34 | 209785 | 217768
28 | 48:23.44 | 1:13.05 | 217769 | 223248
29 | 49:36.49 | 1:32.48 | 223249 | 230196
30 | 51:09.22 | 1:09.48 | 230197 | 235419
31 | 52:18.70 | 2:07.26 | 235420 | 244970
32 | 54:26.21 | 1:04.02 | 244971 | 249772
33 | 55:30.23 | 1:35.41 | 249773 | 256938
34 | 57:05.64 | 0:16.50 | 256939 | 258188
Трек 1
Имя файла C:\Downloads\CD5\01 - Dai 1 Maku - Bara No Kokuin (Drama).wav
Длина предзазора 0:00:02.00
Пиковый уровень 99.4 %
Качество трека 100.0 %
CRC теста D9BD8364
CRC копии D9BD8364
Копирование... OK
Трек 2
Имя файла C:\Downloads\CD5\02 - nouvelle mariee.wav
Длина предзазора 0:00:01.04
Пиковый уровень 99.5 %
Качество трека 99.9 %
CRC теста 975355CC
CRC копии 975355CC
Копирование... OK
Трек 3
Имя файла C:\Downloads\CD5\03 - Dai 2 Maku - Kettousha-Tachi (Drama).wav
Длина предзазора 0:00:02.26
Пиковый уровень 99.5 %
Качество трека 100.0 %
CRC теста 4B3B827B
CRC копии 4B3B827B
Копирование... OK
Трек 4
Имя файла C:\Downloads\CD5\04 - foi.wav
Длина предзазора 0:00:00.71
Пиковый уровень 79.3 %
Качество трека 100.0 %
CRC теста 309F5AAF
CRC копии 309F5AAF
Копирование... OK
Трек 5
Имя файла C:\Downloads\CD5\05 - Dai 3 Maku - Haitoku No Kyoudai.wav
Длина предзазора 0:00:02.25
Пиковый уровень 99.5 %
Качество трека 100.0 %
CRC теста 14EDA257
CRC копии 14EDA257
Копирование... OK
Трек 6
Имя файла C:\Downloads\CD5\06 - fascination.wav
Длина предзазора 0:00:00.65
Пиковый уровень 70.7 %
Качество трека 100.0 %
CRC теста 85FCE599
CRC копии 85FCE599
Копирование... OK
Трек 7
Имя файла C:\Downloads\CD5\07 - Dai 4 Maku - Engage Shite... (Drama).wav
Длина предзазора 0:00:01.55
Пиковый уровень 99.5 %
Качество трека 100.0 %
CRC теста F5E4B592
CRC копии F5E4B592
Копирование... OK
Трек 8
Имя файла C:\Downloads\CD5\08 - bal.wav
Длина предзазора 0:00:02.15
Пиковый уровень 99.5 %
Качество трека 100.0 %
CRC теста D8ADC73D
CRC копии D8ADC73D
Копирование... OK
Трек 9
Имя файла C:\Downloads\CD5\09 - Dai 5 Maku - Shower No Kare (Drama).wav
Длина предзазора 0:00:01.24
Пиковый уровень 99.3 %
Качество трека 100.0 %
CRC теста 6A7F002B
CRC копии 6A7F002B
Копирование... OK
Трек 10
Имя файла C:\Downloads\CD5\10 - Chouchou.wav
Длина предзазора 0:00:02.71
Пиковый уровень 99.5 %
Качество трека 100.0 %
CRC теста 9109991F
CRC копии 9109991F
Копирование... OK
Трек 11
Имя файла C:\Downloads\CD5\11 - Programe De Radiodiffusion.wav
Пиковый уровень 95.6 %
Качество трека 100.0 %
CRC теста 8E7E9601
CRC копии 8E7E9601
Копирование... OK
Трек 12
Имя файла C:\Downloads\CD5\12 - Ondes Electriques.wav
Пиковый уровень 99.6 %
Качество трека 100.0 %
CRC теста AC2C07EE
CRC копии AC2C07EE
Копирование... OK
Трек 13
Имя файла C:\Downloads\CD5\13 - Dai 6 Maku- Onegai! Haniwaccha!!.wav
Длина предзазора 0:00:02.40
Пиковый уровень 99.5 %
Качество трека 100.0 %
CRC теста 78C4B5AF
CRC копии 78C4B5AF
Копирование... OK
Трек 14
Имя файла C:\Downloads\CD5\14 - Animal Sauvage.wav
Длина предзазора 0:00:01.41
Пиковый уровень 99.4 %
Качество трека 100.0 %
CRC теста 56E2BF16
CRC копии 56E2BF16
Копирование... OK
Трек 15
Имя файла C:\Downloads\CD5\15 - Dai 7 Maku- Kozue Dake No Miki.wav
Длина предзазора 0:00:02.74
Пиковый уровень 99.3 %
Качество трека 100.0 %
CRC теста 478E708E
CRC копии 478E708E
Копирование... OK
Трек 16
Имя файла C:\Downloads\CD5\16 - Icone.wav
Длина предзазора 0:00:01.08
Пиковый уровень 99.5 %
Качество трека 99.9 %
CRC теста F22182FA
CRC копии F22182FA
Копирование... OK
Трек 17
Имя файла C:\Downloads\CD5\17 - Croix.wav
Пиковый уровень 93.2 %
Качество трека 100.0 %
CRC теста 43293360
CRC копии 43293360
Копирование... OK
Трек 18
Имя файла C:\Downloads\CD5\18 - Tentation.wav
Пиковый уровень 99.5 %
Качество трека 99.8 %
CRC теста 09177585
CRC копии 09177585
Копирование... OK
Трек 19
Имя файла C:\Downloads\CD5\19 - Dai 8 Maku-Fukaki Ruriiro No Kage.wav
Длина предзазора 0:00:02.68
Пиковый уровень 99.5 %
Качество трека 100.0 %
CRC теста 4C59DE82
CRC копии 4C59DE82
Копирование... OK
Трек 20
Имя файла C:\Downloads\CD5\20 - Terre Promise.wav
Длина предзазора 0:00:02.03
Пиковый уровень 99.4 %
Качество трека 100.0 %
CRC теста 9F2D69F6
CRC копии 9F2D69F6
Копирование... OK
Трек 21
Имя файла C:\Downloads\CD5\21 - Konnichiwa Aka-Chan.wav
Длина предзазора 0:00:03.17
Пиковый уровень 99.2 %
Качество трека 99.9 %
CRC теста 00FBC7C8
CRC копии 00FBC7C8
Копирование... OK
Трек 22
Имя файла C:\Downloads\CD5\22 - Yoake No Scatt.wav
Длина предзазора 0:00:01.61
Пиковый уровень 95.9 %
Качество трека 100.0 %
CRC теста F4B651A2
CRC копии F4B651A2
Копирование... OK
Трек 23
Имя файла C:\Downloads\CD5\23 - Dona Dona.wav
Длина предзазора 0:00:01.58
Пиковый уровень 98.6 %
Качество трека 100.0 %
CRC теста 55D5FA20
CRC копии 55D5FA20
Копирование... OK
Трек 24
Имя файла C:\Downloads\CD5\24 - Dai 9 Maku - Lucifer No Wana (Drama).wav
Длина предзазора 0:00:03.21
Пиковый уровень 99.5 %
Качество трека 100.0 %
CRC теста 11525742
CRC копии 11525742
Копирование... OK
Трек 25
Имя файла C:\Downloads\CD5\25 - Confession.wav
Длина предзазора 0:00:03.27
Пиковый уровень 99.2 %
Качество трека 100.0 %
CRC теста 8F7537CC
CRC копии 8F7537CC
Копирование... OK
Трек 26
Имя файла C:\Downloads\CD5\26 - Pretre.wav
Пиковый уровень 77.1 %
Качество трека 99.9 %
CRC теста 240403BF
CRC копии 240403BF
Копирование... OK
Трек 27
Имя файла C:\Downloads\CD5\27 - Redemption.wav
Пиковый уровень 87.5 %
Качество трека 100.0 %
CRC теста 745D2694
CRC копии 745D2694
Копирование... OK
Трек 28
Имя файла C:\Downloads\CD5\28 - Dai 10 Maku - Sekai Wo Kakumei Suru.wav
Длина предзазора 0:00:02.65
Пиковый уровень 98.8 %
Качество трека 99.8 %
CRC теста 69F49EA8
CRC копии 69F49EA8
Копирование... OK
Трек 29
Имя файла C:\Downloads\CD5\29 - Fruit Defendu.wav
Длина предзазора 0:00:01.57
Пиковый уровень 99.5 %
Качество трека 99.8 %
CRC теста 7457C911
CRC копии 7457C911
Копирование... OK
Трек 30
Имя файла C:\Downloads\CD5\30 - Dai 11 Maku - Watashi No Ouji-Sama.wav
Пиковый уровень 99.5 %
Качество трека 100.0 %
CRC теста 3A307668
CRC копии 3A307668
Копирование... OK
Трек 31
Имя файла C:\Downloads\CD5\31 - Baiser.wav
Длина предзазора 0:00:01.05
Пиковый уровень 99.5 %
Качество трека 100.0 %
CRC теста E1577849
CRC копии E1577849
Копирование... OK
Трек 32
Имя файла C:\Downloads\CD5\32 - Dai 12 Maku - Itsuka Issho Ni Kagaya.wav
Длина предзазора 0:00:02.46
Пиковый уровень 99.4 %
Качество трека 100.0 %
CRC теста 70CF845E
CRC копии 70CF845E
Копирование... OK
Трек 33
Имя файла C:\Downloads\CD5\33 - Rose&release (karaoke).wav
Пиковый уровень 99.5 %
Качество трека 100.0 %
CRC теста ADB4CF2E
CRC копии ADB4CF2E
Копирование... OK
Трек 34
Имя файла C:\Downloads\CD5\34 - Dai 13 Maku - Watashi To Anata Ga.wav
Длина предзазора 0:00:03.73
Пиковый уровень 92.1 %
Качество трека 100.0 %
CRC теста 07C9198F
CRC копии 07C9198F
Копирование... OK
Ошибок не произошло
Конец отчёта
Отчёт EAC CD6
Exact Audio Copy V0.99 prebeta 4 from 23. January 2008
Отчёт EAC об извлечении, выполненном 11. мая 2009, 0:07
Shinkichi Mitsumune / Utena CD Box CD 6 Allez, prends moi pour fiancee
Дисковод: PLEXTOR BD-R PX-B900A Adapter: 1 ID: 0
Режим чтения : Достоверность
Использование точного потока : Да
Отключение кэша аудио : Да
Использование указателей C2 : Нет
Коррекция смещения при чтении : 102
Способность читать области Lead-in и Lead-out : Нет
Заполнение пропущенных сэмплов тишиной : Да
Удаление блоков с тишиной в начале и конце : Нет
При вычислениях CRC использовались нулевые сэмплы : Нет
Интерфейс : Встроенный Win32-интерфейс для Win NT/2000
Обработка зазоров : Добавлено к предыдущему треку
Выходной формат : Пользовательский кодировщик
Выбранный битрейт : 768 kBit/s
Качество : Высокий
Добавление ID3-тэга : Нет
Утилита сжатия : C:\Program Files\Exact Audio Copy\Flac\flac.exe
Дополнительные параметры : -V -8 -T "artist=%a" -T "title=%t" -T "album=%g" -T "date=%y" -T "tracknumber=%n" -T "genre=%m" %s
TOC извлечённого CD
Трек | Старт | Длительность | Начальный сектор | Конечный сектор
---------------------------------------------------------------------
1 | 0:00.00 | 1:52.06 | 0 | 8405
2 | 1:52.06 | 3:09.72 | 8406 | 22652
3 | 5:02.03 | 3:27.44 | 22653 | 38221
4 | 8:29.47 | 4:52.12 | 38222 | 60133
5 | 13:21.59 | 1:51.01 | 60134 | 68459
6 | 15:12.60 | 3:59.59 | 68460 | 86443
7 | 19:12.44 | 2:07.25 | 86444 | 95993
8 | 21:19.69 | 3:42.71 | 95994 | 112714
9 | 25:02.65 | 0:13.12 | 112715 | 113701
10 | 25:16.02 | 3:04.15 | 113702 | 127516
11 | 28:20.17 | 0:39.00 | 127517 | 130441
12 | 28:59.17 | 1:33.71 | 130442 | 137487
13 | 30:33.13 | 2:58.47 | 137488 | 150884
14 | 33:31.60 | 2:45.70 | 150885 | 163329
15 | 36:17.55 | 2:41.19 | 163330 | 175423
16 | 38:58.74 | 1:33.74 | 175424 | 182472
Трек 1
Имя файла C:\Downloads\Utena CD Box\CD6\01 - Bara no Kokuin no Tegami I (INSTRUMENTAL).wav
Длина предзазора 0:00:02.00
Пиковый уровень 100.0 %
Качество трека 100.0 %
CRC теста 2A68900E
CRC копии 2A68900E
Копирование... OK
Трек 2
Имя файла C:\Downloads\Utena CD Box\CD6\02 - Tsuyoku Kedakaku.wav
Длина предзазора 0:00:02.69
Пиковый уровень 99.9 %
Качество трека 100.0 %
CRC теста 5D63959E
CRC копии 5D63959E
Копирование... OK
Трек 3
Имя файла C:\Downloads\Utena CD Box\CD6\03 - Ouji-sama ga Ii.wav
Длина предзазора 0:00:01.70
Пиковый уровень 99.9 %
Качество трека 100.0 %
CRC теста D453924D
CRC копии D453924D
Копирование... OK
Трек 4
Имя файла C:\Downloads\Utena CD Box\CD6\04 - Sekai wo Kakumei Suru tame ni I.wav
Длина предзазора 0:00:01.70
Пиковый уровень 99.9 %
Качество трека 100.0 %
CRC теста 4DF7799B
CRC копии 4DF7799B
Копирование... OK
Трек 5
Имя файла C:\Downloads\Utena CD Box\CD6\05 - Zettai Unmei Mokushiroku II.wav
Длина предзазора 0:00:01.71
Пиковый уровень 99.9 %
Качество трека 100.0 %
CRC теста A01ADB1C
CRC копии A01ADB1C
Копирование... OK
Трек 6
Имя файла C:\Downloads\Utena CD Box\CD6\06 - Bara no Hanayome.wav
Длина предзазора 0:00:01.69
Пиковый уровень 99.9 %
Качество трека 100.0 %
CRC теста CD60169D
CRC копии CD60169D
Копирование... OK
Трек 7
Имя файла C:\Downloads\Utena CD Box\CD6\07 - Kagee Shoujo I.wav
Длина предзазора 0:00:00.71
Пиковый уровень 99.9 %
Качество трека 100.0 %
CRC теста 5CDA7BD5
CRC копии 5CDA7BD5
Копирование... OK
Трек 8
Имя файла C:\Downloads\Utena CD Box\CD6\08 - WELCOME II.wav
Длина предзазора 0:00:02.29
Пиковый уровень 99.9 %
Качество трека 100.0 %
CRC теста 8BEC54F9
CRC копии 8BEC54F9
Копирование... OK
Трек 9
Имя файла C:\Downloads\Utena CD Box\CD6\09 - Eye catcher.wav
Длина предзазора 0:00:01.69
Пиковый уровень 75.8 %
Качество трека 100.0 %
CRC теста 38350747
CRC копии 38350747
Копирование... OK
Трек 10
Имя файла C:\Downloads\Utena CD Box\CD6\10 - Butoukai no Yoru ni.wav
Пиковый уровень 99.9 %
Качество трека 100.0 %
CRC теста D445F38B
CRC копии D445F38B
Копирование... OK
Трек 11
Имя файла C:\Downloads\Utena CD Box\CD6\11 - DUELIST.wav
Длина предзазора 0:00:01.67
Пиковый уровень 99.9 %
Качество трека 100.0 %
CRC теста F19B4B66
CRC копии F19B4B66
Копирование... OK
Трек 12
Имя файла C:\Downloads\Utena CD Box\CD6\12 - Onna no Ko no Kisetsu.wav
Пиковый уровень 99.8 %
Качество трека 99.8 %
CRC теста E6E804DD
CRC копии E6E804DD
Копирование... OK
Трек 13
Имя файла C:\Downloads\Utena CD Box\CD6\13 - Hana no Nai Bara.wav
Длина предзазора 0:00:01.67
Пиковый уровень 99.7 %
Качество трека 99.9 %
CRC теста 884659C3
CRC копии 884659C3
Копирование... OK
Трек 14
Имя файла C:\Downloads\Utena CD Box\CD6\14 - Mamotte Hoshii.wav
Длина предзазора 0:00:01.67
Пиковый уровень 99.7 %
Качество трека 100.0 %
CRC теста 99178B86
CRC копии 99178B86
Копирование... OK
Трек 15
Имя файла C:\Downloads\Utena CD Box\CD6\15 - Arigatou Ai wo.wav
Длина предзазора 0:00:01.68
Пиковый уровень 99.9 %
Качество трека 100.0 %
CRC теста 11D415DA
CRC копии 11D415DA
Копирование... OK
Трек 16
Имя файла C:\Downloads\Utena CD Box\CD6\16 - Rondo revolution (TV Size).wav
Длина предзазора 0:00:02.66
Пиковый уровень 99.9 %
Качество трека 99.8 %
CRC теста 5DF51998
CRC копии 5DF51998
Копирование... OK
Ошибок не произошло
Конец отчёта
Отчёт EAC CD7
Exact Audio Copy V0.99 prebeta 4 from 23. January 2008
Отчёт EAC об извлечении, выполненном 11. мая 2009, 2:58
Shinkichi Mitsumune / Utena CD Box CD7 Visite au Nirvana de la boeaute
Дисковод: PLEXTOR BD-R PX-B900A Adapter: 1 ID: 0
Режим чтения : Достоверность
Использование точного потока : Да
Отключение кэша аудио : Да
Использование указателей C2 : Нет
Коррекция смещения при чтении : 102
Способность читать области Lead-in и Lead-out : Нет
Заполнение пропущенных сэмплов тишиной : Да
Удаление блоков с тишиной в начале и конце : Нет
При вычислениях CRC использовались нулевые сэмплы : Нет
Интерфейс : Встроенный Win32-интерфейс для Win NT/2000
Обработка зазоров : Добавлено к предыдущему треку
Выходной формат : Пользовательский кодировщик
Выбранный битрейт : 768 kBit/s
Качество : Высокий
Добавление ID3-тэга : Нет
Утилита сжатия : C:\Program Files\Exact Audio Copy\Flac\flac.exe
Дополнительные параметры : -V -8 -T "artist=%a" -T "title=%t" -T "album=%g" -T "date=%y" -T "tracknumber=%n" -T "genre=%m" %s
TOC извлечённого CD
Трек | Старт | Длительность | Начальный сектор | Конечный сектор
---------------------------------------------------------------------
1 | 0:00.00 | 3:20.72 | 0 | 15071
2 | 3:20.72 | 1:59.59 | 15072 | 24055
3 | 5:20.56 | 4:34.72 | 24056 | 44677
4 | 9:55.53 | 1:49.74 | 44678 | 52926
5 | 11:45.52 | 2:23.10 | 52927 | 63661
6 | 14:08.62 | 4:49.48 | 63662 | 85384
7 | 18:58.35 | 1:48.30 | 85385 | 93514
8 | 20:46.65 | 2:09.27 | 93515 | 103216
9 | 22:56.17 | 2:15.15 | 103217 | 113356
10 | 25:11.32 | 0:10.62 | 113357 | 114168
11 | 25:22.19 | 1:54.04 | 114169 | 122722
12 | 27:16.23 | 3:14.44 | 122723 | 137316
13 | 30:30.67 | 1:17.02 | 137317 | 143093
14 | 31:47.69 | 0:11.36 | 143094 | 143954
15 | 31:59.30 | 1:41.36 | 143955 | 151565
16 | 33:40.66 | 1:51.71 | 151566 | 159961
17 | 35:32.62 | 3:12.67 | 159962 | 174428
18 | 38:45.54 | 0:32.03 | 174429 | 176831
19 | 39:17.57 | 1:08.54 | 176832 | 181985
20 | 40:26.36 | 1:32.61 | 181986 | 188946
21 | 41:59.22 | 0:11.32 | 188947 | 189803
22 | 42:10.54 | 1:15.63 | 189804 | 195491
23 | 43:26.42 | 2:05.71 | 195492 | 204937
24 | 45:32.38 | 1:15.52 | 204938 | 210614
25 | 46:48.15 | 4:21.49 | 210615 | 230238
26 | 51:09.64 | 2:05.02 | 230239 | 239615
27 | 53:14.66 | 2:37.46 | 239616 | 251436
28 | 55:52.37 | 4:25.70 | 251437 | 271381
29 | 60:18.32 | 0:48.58 | 271382 | 275039
Трек 1
Имя файла C:\Downloads\Utena CD Box\CD7\01 - Zettai Unmei Mokushiroku (Adolesence Cover).wav
Длина предзазора 0:00:02.00
Пиковый уровень 99.5 %
Качество трека 100.0 %
CRC теста 95FACA14
CRC копии 95FACA14
Копирование... OK
Трек 2
Имя файла C:\Downloads\Utena CD Box\CD7\02 - SEGA SATURN opening inst.wav
Длина предзазора 0:00:01.18
Пиковый уровень 99.9 %
Качество трека 100.0 %
CRC теста 714BB8A9
CRC копии 714BB8A9
Копирование... OK
Трек 3
Имя файла C:\Downloads\Utena CD Box\CD7\03 - Rinbu - Revolution [Full Version].wav
Пиковый уровень 96.6 %
Качество трека 99.9 %
CRC теста 8D33C011
CRC копии 8D33C011
Копирование... OK
Трек 4
Имя файла C:\Downloads\Utena CD Box\CD7\04 - Gakuen no Scarlet.wav
Длина предзазора 0:00:01.45
Пиковый уровень 99.8 %
Качество трека 100.0 %
CRC теста 70DEC067
CRC копии 70DEC067
Копирование... OK
Трек 5
Имя файла C:\Downloads\Utena CD Box\CD7\05 - Arasou no Jouka e.wav
Длина предзазора 0:00:01.25
Пиковый уровень 99.6 %
Качество трека 99.9 %
CRC теста FAC26F0E
CRC копии FAC26F0E
Копирование... OK
Трек 6
Имя файла C:\Downloads\Utena CD Box\CD7\06 - Sekai Wo Kakumei Suru Tame Ni.wav
Длина предзазора 0:00:01.31
Пиковый уровень 99.3 %
Качество трека 100.0 %
CRC теста 915FC2B9
CRC копии 915FC2B9
Копирование... OK
Трек 7
Имя файла C:\Downloads\Utena CD Box\CD7\07 - Zettai Unmei Mokushiroku [Musical Version].wav
Пиковый уровень 99.4 %
Качество трека 100.0 %
CRC теста 04E426B5
CRC копии 04E426B5
Копирование... OK
Трек 8
Имя файла C:\Downloads\Utena CD Box\CD7\08 - Spira Mirabilis Gekijou.wav
Пиковый уровень 99.8 %
Качество трека 100.0 %
CRC теста 36977D47
CRC копии 36977D47
Копирование... OK
Трек 9
Имя файла C:\Downloads\Utena CD Box\CD7\09 - Tenshi Souzou Sunawachi Hikari with Banyu Inryoku.wav
Пиковый уровень 99.8 %
Качество трека 100.0 %
CRC теста 5941D696
CRC копии 5941D696
Копирование... OK
Трек 10
Имя файла C:\Downloads\Utena CD Box\CD7\10 - Eyecatcher.wav
Длина предзазора 0:00:00.56
Пиковый уровень 100.0 %
Качество трека 100.0 %
CRC теста AC8F4F53
CRC копии AC8F4F53
Копирование... OK
Трек 11
Имя файла C:\Downloads\Utena CD Box\CD7\11 - Nemuro Kinenkan.wav
Длина предзазора 0:00:00.55
Пиковый уровень 97.7 %
Качество трека 100.0 %
CRC теста 80979351
CRC копии 80979351
Копирование... OK
Трек 12
Имя файла C:\Downloads\Utena CD Box\CD7\12 - Watashi Kuusou Seimeitai.wav
Длина предзазора 0:00:01.54
Пиковый уровень 99.8 %
Качество трека 99.9 %
CRC теста 21248067
CRC копии 21248067
Копирование... OK
Трек 13
Имя файла C:\Downloads\Utena CD Box\CD7\13 - Virtual Star Hasseigaku (TV Size).wav
Пиковый уровень 99.8 %
Качество трека 99.8 %
CRC теста D7DD9F39
CRC копии D7DD9F39
Копирование... OK
Трек 14
Имя файла C:\Downloads\Utena CD Box\CD7\14 - Subtitle.wav
Длина предзазора 0:00:00.54
Пиковый уровень 99.8 %
Качество трека 100.0 %
CRC теста 7EC71519
CRC копии 7EC71519
Копирование... OK
Трек 15
Имя файла C:\Downloads\Utena CD Box\CD7\15 - Butou no Eros.wav
Длина предзазора 0:00:00.55
Пиковый уровень 98.7 %
Качество трека 100.0 %
CRC теста 6374AA00
CRC копии 6374AA00
Копирование... OK
Трек 16
Имя файла C:\Downloads\Utena CD Box\CD7\16 - Chikyuu wa Jinbutsu Retsusushitsu.wav
Длина предзазора 0:00:01.27
Пиковый уровень 99.6 %
Качество трека 100.0 %
CRC теста BF7D9D4D
CRC копии BF7D9D4D
Копирование... OK
Трек 17
Имя файла C:\Downloads\Utena CD Box\CD7\17 - Watashi Banbutsu Hyaku Fushigi.wav
Пиковый уровень 99.8 %
Качество трека 100.0 %
CRC теста D1140DFF
CRC копии D1140DFF
Копирование... OK
Трек 18
Имя файла C:\Downloads\Utena CD Box\CD7\18 - Jikai Yokoku.wav
Длина предзазора 0:00:01.21
Пиковый уровень 99.8 %
Качество трека 100.0 %
CRC теста 0103EA65
CRC копии 0103EA65
Копирование... OK
Трек 19
Имя файла C:\Downloads\Utena CD Box\CD7\19 - Gakuen no Lyric.wav
Длина предзазора 0:00:00.61
Пиковый уровень 98.2 %
Качество трека 99.8 %
CRC теста B117D7A5
CRC копии B117D7A5
Копирование... OK
Трек 20
Имя файла C:\Downloads\Utena CD Box\CD7\20 - Onna no Ko no Kisetsu.wav
Длина предзазора 0:00:01.21
Пиковый уровень 99.9 %
Качество трека 100.0 %
CRC теста BD36615F
CRC копии BD36615F
Копирование... OK
Трек 21
Имя файла C:\Downloads\Utena CD Box\CD7\21 - Eyecatcher 2.wav
Длина предзазора 0:00:00.56
Пиковый уровень 93.6 %
Качество трека 100.0 %
CRC теста 36BF1A75
CRC копии 36BF1A75
Копирование... OK
Трек 22
Имя файла C:\Downloads\Utena CD Box\CD7\22 - Poison.wav
Длина предзазора 0:00:00.55
Пиковый уровень 95.4 %
Качество трека 100.0 %
CRC теста E653810B
CRC копии E653810B
Копирование... OK
Трек 23
Имя файла C:\Downloads\Utena CD Box\CD7\23 - Akio Car.wav
Длина предзазора 0:00:00.62
Пиковый уровень 99.8 %
Качество трека 100.0 %
CRC теста FA65A8DB
CRC копии FA65A8DB
Копирование... OK
Трек 24
Имя файла C:\Downloads\Utena CD Box\CD7\24 - Orpheus.wav
Длина предзазора 0:00:00.52
Пиковый уровень 99.6 %
Качество трека 99.8 %
CRC теста 57C16AD1
CRC копии 57C16AD1
Копирование... OK
Трек 25
Имя файла C:\Downloads\Utena CD Box\CD7\25 - Sofia.wav
Длина предзазора 0:00:00.59
Пиковый уровень 99.9 %
Качество трека 99.9 %
CRC теста 38B43C24
CRC копии 38B43C24
Копирование... OK
Трек 26
Имя файла C:\Downloads\Utena CD Box\CD7\26 - Baiser [Kisu].wav
Длина предзазора 0:00:01.19
Пиковый уровень 98.0 %
Качество трека 100.0 %
CRC теста 80CCF869
CRC копии 80CCF869
Копирование... OK
Трек 27
Имя файла C:\Downloads\Utena CD Box\CD7\27 - Arigatou Ai Wo.wav
Длина предзазора 0:00:00.22
Пиковый уровень 99.8 %
Качество трека 100.0 %
CRC теста 52D63949
CRC копии 52D63949
Копирование... OK
Трек 28
Имя файла C:\Downloads\Utena CD Box\CD7\28 - Truth [Full Version].wav
Пиковый уровень 97.7 %
Качество трека 100.0 %
CRC теста 4019E317
CRC копии 4019E317
Копирование... OK
Трек 29
Имя файла C:\Downloads\Utena CD Box\CD7\29 - The movie flash prelude.wav
Длина предзазора 0:00:01.21
Пиковый уровень 99.8 %
Качество трека 100.0 %
CRC теста 13CEE94F
CRC копии 13CEE94F
Копирование... OK
Ошибок не произошло
Конец отчёта
Отчёт EAC CD8
Exact Audio Copy V0.99 prebeta 4 from 23. January 2008
Отчёт EAC об извлечении, выполненном 11. мая 2009, 12:30
Shinkichi Mitsumune / Utena CD Box CD8 Sophia, la ressurection des Rose d'oeuf
Дисковод: PLEXTOR BD-R PX-B900A Adapter: 1 ID: 0
Режим чтения : Достоверность
Использование точного потока : Да
Отключение кэша аудио : Да
Использование указателей C2 : Нет
Коррекция смещения при чтении : 102
Способность читать области Lead-in и Lead-out : Нет
Заполнение пропущенных сэмплов тишиной : Да
Удаление блоков с тишиной в начале и конце : Нет
При вычислениях CRC использовались нулевые сэмплы : Нет
Интерфейс : Встроенный Win32-интерфейс для Win NT/2000
Обработка зазоров : Добавлено к предыдущему треку
Выходной формат : Пользовательский кодировщик
Выбранный битрейт : 768 kBit/s
Качество : Высокий
Добавление ID3-тэга : Нет
Утилита сжатия : C:\Program Files\Exact Audio Copy\Flac\flac.exe
Дополнительные параметры : -V -8 -T "artist=%a" -T "title=%t" -T "album=%g" -T "date=%y" -T "tracknumber=%n" -T "genre=%m" %s
TOC извлечённого CD
Трек | Старт | Длительность | Начальный сектор | Конечный сектор
---------------------------------------------------------------------
1 | 0:00.00 | 3:52.33 | 0 | 17432
2 | 3:52.33 | 4:31.63 | 17433 | 37820
3 | 8:24.21 | 5:58.74 | 37821 | 64744
4 | 14:23.20 | 5:52.56 | 64745 | 91200
5 | 20:16.01 | 6:08.03 | 91201 | 118803
6 | 26:24.04 | 5:38.12 | 118804 | 144165
7 | 32:02.16 | 5:27.43 | 144166 | 168733
8 | 37:29.59 | 6:20.33 | 168734 | 197266
9 | 43:50.17 | 4:16.72 | 197267 | 216538
10 | 48:07.14 | 5:47.39 | 216539 | 242602
11 | 53:54.53 | 6:10.31 | 242603 | 270383
12 | 60:05.09 | 8:29.64 | 270384 | 308622
13 | 68:34.73 | 6:27.62 | 308623 | 337709
Трек 1
Имя файла C:\Downloads\Utena CD Box\CD8\01 - Rose is rain.wav
Длина предзазора 0:00:02.00
Пиковый уровень 99.9 %
Качество трека 99.9 %
CRC теста EACFBC30
CRC копии EACFBC30
Копирование... OK
Трек 2
Имя файла C:\Downloads\Utena CD Box\CD8\02 - ASTRAGALOUS Chikyuu Sugoroku.wav
Длина предзазора 0:00:01.60
Пиковый уровень 99.9 %
Качество трека 100.0 %
CRC теста BF4E0878
CRC копии BF4E0878
Копирование... OK
Трек 3
Имя файла C:\Downloads\Utena CD Box\CD8\03 - Rekishi Bourou Moji Sabaku.wav
Длина предзазора 0:00:02.41
Пиковый уровень 99.9 %
Качество трека 100.0 %
CRC теста 71AB278F
CRC копии 71AB278F
Копирование... OK
Трек 4
Имя файла C:\Downloads\Utena CD Box\CD8\04 - PETIT Banshou no Seimei Kodokushi.wav
Длина предзазора 0:00:02.41
Пиковый уровень 99.8 %
Качество трека 100.0 %
CRC теста A89CA28E
CRC копии A89CA28E
Копирование... OK
Трек 5
Имя файла C:\Downloads\Utena CD Box\CD8\05 - Sekai Roudan no Yurikago de -IN THE HANDS OF THE WORLD-.wav
Длина предзазора 0:00:02.39
Пиковый уровень 99.9 %
Качество трека 100.0 %
CRC теста EA8DE3C2
CRC копии EA8DE3C2
Копирование... OK
Трек 6
Имя файла C:\Downloads\Utena CD Box\CD8\06 - Suiteki Sunawachi Banyuu Shigen.wav
Длина предзазора 0:00:02.37
Пиковый уровень 99.9 %
Качество трека 100.0 %
CRC теста 42C3D907
CRC копии 42C3D907
Копирование... OK
Трек 7
Имя файла C:\Downloads\Utena CD Box\CD8\07 - Kaigetsu Ai ni Shisu.wav
Длина предзазора 0:00:02.38
Пиковый уровень 99.9 %
Качество трека 100.0 %
CRC теста DF16708C
CRC копии DF16708C
Копирование... OK
Трек 8
Имя файла C:\Downloads\Utena CD Box\CD8\08 - Zettai Biwaku DAS EROTICA.wav
Длина предзазора 0:00:01.63
Пиковый уровень 99.9 %
Качество трека 100.0 %
CRC теста BD22FE6A
CRC копии BD22FE6A
Копирование... OK
Трек 9
Имя файла C:\Downloads\Utena CD Box\CD8\09 - DEFORME - DEJA VU.wav
Длина предзазора 0:00:02.33
Пиковый уровень 99.9 %
Качество трека 100.0 %
CRC теста A3439F7B
CRC копии A3439F7B
Копирование... OK
Трек 10
Имя файла C:\Downloads\Utena CD Box\CD8\10 - REMINISCENCE no METAMORPHOSIS (Kouya yori).wav
Длина предзазора 0:00:02.30
Пиковый уровень 99.9 %
Качество трека 100.0 %
CRC теста E777C6FC
CRC копии E777C6FC
Копирование... OK
Трек 11
Имя файла C:\Downloads\Utena CD Box\CD8\11 - SHURA -Nikutai Seiza ALPHA PSI ZETA Seiun-.wav
Длина предзазора 0:00:02.21
Пиковый уровень 99.9 %
Качество трека 100.0 %
CRC теста E5B757B1
CRC копии E5B757B1
Копирование... OK
Трек 12
Имя файла C:\Downloads\Utena CD Box\CD8\12 - Warera Mizukara wo Kiteta Datenshi Nari.wav
Длина предзазора 0:00:02.11
Пиковый уровень 99.9 %
Качество трека 100.0 %
CRC теста BA5E26F8
CRC копии BA5E26F8
Копирование... OK
Трек 13
Имя файла C:\Downloads\Utena CD Box\CD8\13 - Yomigaere! Mukyuu no Rekishi Chuusei yo.wav
Длина предзазора 0:00:02.47
Пиковый уровень 99.9 %
Качество трека 100.0 %
CRC теста 6E426BB9
CRC копии 6E426BB9
Копирование... OK
Ошибок не произошло
Конец отчёта
Отчёт EAC CD9
Exact Audio Copy V0.99 prebeta 4 from 23. January 2008
Отчёт EAC об извлечении, выполненном 11. мая 2009, 13:50
Shinkichi Mitsumune / Utena CD Box CD9 Le rush de l'adolescence
Дисковод: PLEXTOR BD-R PX-B900A Adapter: 1 ID: 0
Режим чтения : Достоверность
Использование точного потока : Да
Отключение кэша аудио : Да
Использование указателей C2 : Нет
Коррекция смещения при чтении : 102
Способность читать области Lead-in и Lead-out : Нет
Заполнение пропущенных сэмплов тишиной : Да
Удаление блоков с тишиной в начале и конце : Нет
При вычислениях CRC использовались нулевые сэмплы : Нет
Интерфейс : Встроенный Win32-интерфейс для Win NT/2000
Обработка зазоров : Добавлено к предыдущему треку
Выходной формат : Пользовательский кодировщик
Выбранный битрейт : 768 kBit/s
Качество : Высокий
Добавление ID3-тэга : Нет
Утилита сжатия : C:\Program Files\Exact Audio Copy\Flac\flac.exe
Дополнительные параметры : -V -8 -T "artist=%a" -T "title=%t" -T "album=%g" -T "date=%y" -T "tracknumber=%n" -T "genre=%m" %s
TOC извлечённого CD
Трек | Старт | Длительность | Начальный сектор | Конечный сектор
---------------------------------------------------------------------
1 | 0:00.00 | 1:46.11 | 0 | 7960
2 | 1:46.11 | 3:19.55 | 7961 | 22940
3 | 5:05.66 | 2:55.11 | 22941 | 36076
4 | 8:01.02 | 3:38.21 | 36077 | 52447
5 | 11:39.23 | 4:46.38 | 52448 | 73935
6 | 16:25.61 | 2:15.53 | 73936 | 84113
7 | 18:41.39 | 4:13.23 | 84114 | 103111
8 | 22:54.62 | 2:00.55 | 103112 | 112166
9 | 24:55.42 | 5:12.49 | 112167 | 135615
10 | 30:08.16 | 4:59.52 | 135616 | 158092
11 | 35:07.68 | 3:32.73 | 158093 | 174065
12 | 38:40.66 | 7:36.68 | 174066 | 208333
13 | 46:17.59 | 7:56.67 | 208334 | 244100
14 | 54:14.51 | 4:20.50 | 244101 | 263650
Трек 1
Имя файла C:\Downloads\Utena CD Box\CD9\01 - ROSE IS RAIN Bara Tamago Sosei Roku.wav
Длина предзазора 0:00:02.00
Пиковый уровень 99.9 %
Качество трека 100.0 %
CRC теста 05EB9A06
CRC копии 05EB9A06
Копирование... OK
Трек 2
Имя файла C:\Downloads\Utena CD Box\CD9\02 - SCARLET-tachi no Butou ~ Saikai.wav
Длина предзазора 0:00:02.26
Пиковый уровень 99.8 %
Качество трека 100.0 %
CRC теста EC8F42CD
CRC копии EC8F42CD
Копирование... OK
Трек 3
Имя файла C:\Downloads\Utena CD Box\CD9\03 - Bara no Kokuin ~ Kuuchuu Teien no Hanayome.wav
Длина предзазора 0:00:02.44
Пиковый уровень 94.9 %
Качество трека 100.0 %
CRC теста C34950FA
CRC копии C34950FA
Копирование... OK
Трек 4
Имя файла C:\Downloads\Utena CD Box\CD9\04 - DUELIST ~ Yomigaere! Mukyuu no Rekishi Chuusei yo.wav
Длина предзазора 0:00:02.47
Пиковый уровень 99.8 %
Качество трека 100.0 %
CRC теста DCD6DEFD
CRC копии DCD6DEFD
Копирование... OK
Трек 5
Имя файла C:\Downloads\Utena CD Box\CD9\05 - ILLUSION ~ Akui no Sanagi.wav
Длина предзазора 0:00:02.72
Пиковый уровень 90.2 %
Качество трека 100.0 %
CRC теста 52A18250
CRC копии 52A18250
Копирование... OK
Трек 6
Имя файла C:\Downloads\Utena CD Box\CD9\06 - BELLADONNA no Wana.wav
Длина предзазора 0:00:02.23
Пиковый уровень 99.3 %
Качество трека 100.0 %
CRC теста 2B9683B9
CRC копии 2B9683B9
Копирование... OK
Трек 7
Имя файла C:\Downloads\Utena CD Box\CD9\07 - Toki ni Ai wa.wav
Длина предзазора 0:00:02.57
Пиковый уровень 89.1 %
Качество трека 100.0 %
CRC теста 74E4AE1E
CRC копии 74E4AE1E
Копирование... OK
Трек 8
Имя файла C:\Downloads\Utena CD Box\CD9\08 - Akio Enbukyoku ~ VIDEO na Kioku.wav
Длина предзазора 0:00:02.69
Пиковый уровень 80.9 %
Качество трека 100.0 %
CRC теста C50A7E17
CRC копии C50A7E17
Копирование... OK
Трек 9
Имя файла C:\Downloads\Utena CD Box\CD9\09 - Bara no Rashin ~ SHURA -Nikutai Seiza ALPHA PSI ZETA Seiun-.wav
Длина предзазора 0:00:02.18
Пиковый уровень 99.8 %
Качество трека 100.0 %
CRC теста BBA7BCC8
CRC копии BBA7BCC8
Копирование... OK
Трек 10
Имя файла C:\Downloads\Utena CD Box\CD9\10 - ABRAXAS ~ Hikari Sasu Niwa.wav
Длина предзазора 0:00:02.25
Пиковый уровень 98.9 %
Качество трека 100.0 %
CRC теста FFA5C863
CRC копии FFA5C863
Копирование... OK
Трек 11
Имя файла C:\Downloads\Utena CD Box\CD9\11 - Zettai Unmei Mokushiroku - Adolescence of UTENA.wav
Длина предзазора 0:00:02.19
Пиковый уровень 99.8 %
Качество трека 100.0 %
CRC теста BC8D4E33
CRC копии BC8D4E33
Копирование... OK
Трек 12
Имя файла C:\Downloads\Utena CD Box\CD9\12 - Kessen ~ BELZEBUL no Oujou.wav
Длина предзазора 0:00:02.00
Пиковый уровень 99.8 %
Качество трека 99.9 %
CRC теста AC58579E
CRC копии AC58579E
Копирование... OK
Трек 13
Имя файла C:\Downloads\Utena CD Box\CD9\13 - Rondo - revolution ~ ADOLESCENCE RUSH.wav
Длина предзазора 0:00:00.41
Пиковый уровень 99.8 %
Качество трека 100.0 %
CRC теста BA149D88
CRC копии BA149D88
Копирование... OK
Трек 14
Имя файла C:\Downloads\Utena CD Box\CD9\14 - FIANCEE ni Naritai -Symphonic Instrumental-.wav
Длина предзазора 0:00:02.44
Пиковый уровень 99.8 %
Качество трека 99.9 %
CRC теста D5F87DE7
CRC копии D5F87DE7
Копирование... OK
Ошибок не произошло
Конец отчёта
Отчёт EAC CD10
Exact Audio Copy V0.99 prebeta 4 from 23. January 2008
Отчёт EAC об извлечении, выполненном 11. мая 2009, 17:46
Shinkichi Mitsumune / Utena CD Box CD10 Le bal de la destinee absolue - UTENA in the CLUB -
Дисковод: PLEXTOR BD-R PX-B900A Adapter: 1 ID: 0
Режим чтения : Достоверность
Использование точного потока : Да
Отключение кэша аудио : Да
Использование указателей C2 : Нет
Коррекция смещения при чтении : 102
Способность читать области Lead-in и Lead-out : Нет
Заполнение пропущенных сэмплов тишиной : Да
Удаление блоков с тишиной в начале и конце : Нет
При вычислениях CRC использовались нулевые сэмплы : Нет
Интерфейс : Встроенный Win32-интерфейс для Win NT/2000
Обработка зазоров : Добавлено к предыдущему треку
Выходной формат : Пользовательский кодировщик
Выбранный битрейт : 768 kBit/s
Качество : Высокий
Добавление ID3-тэга : Нет
Утилита сжатия : C:\Program Files\Exact Audio Copy\Flac\flac.exe
Дополнительные параметры : -V -8 -T "artist=%a" -T "title=%t" -T "album=%g" -T "date=%y" -T "tracknumber=%n" -T "genre=%m" %s
TOC извлечённого CD
Трек | Старт | Длительность | Начальный сектор | Конечный сектор
---------------------------------------------------------------------
1 | 0:00.00 | 6:37.60 | 0 | 29834
2 | 6:37.60 | 3:36.21 | 29835 | 46055
3 | 10:14.06 | 2:57.27 | 46056 | 59357
4 | 13:11.33 | 2:00.30 | 59358 | 68387
5 | 15:11.63 | 7:22.65 | 68388 | 101602
6 | 22:34.53 | 2:14.14 | 101603 | 111666
7 | 24:48.67 | 2:19.66 | 111667 | 122157
8 | 27:08.58 | 16:02.34 | 122158 | 194341
9 | 43:11.17 | 2:50.52 | 194342 | 207143
10 | 46:01.69 | 2:33.10 | 207144 | 218628
Трек 1
Имя файла C:\Downloads\Utena CD Box\CD10\01 - Club Mix 'Rinbu-Revolution Vocal Medley'.wav
Длина предзазора 0:00:02.00
Пиковый уровень 100.0 %
Качество трека 99.9 %
CRC теста 84A15304
CRC копии 84A15304
Копирование... OK
Трек 2
Имя файла C:\Downloads\Utena CD Box\CD10\02 - Techno 'Hikarisasu Niwa'.wav
Длина предзазора 0:00:01.60
Пиковый уровень 99.8 %
Качество трека 100.0 %
CRC теста 31DBB00C
CRC копии 31DBB00C
Копирование... OK
Трек 3
Имя файла C:\Downloads\Utena CD Box\CD10\03 - Bossa Nova 'Zettai Unmei Mikushiroku'.wav
Длина предзазора 0:00:01.60
Пиковый уровень 99.8 %
Качество трека 100.0 %
CRC теста 7D704F82
CRC копии 7D704F82
Копирование... OK
Трек 4
Имя файла C:\Downloads\Utena CD Box\CD10\04 - Samba 'Shoujo Kakumei.Overture'.wav
Длина предзазора 0:00:01.60
Пиковый уровень 99.9 %
Качество трека 100.0 %
CRC теста D4402450
CRC копии D4402450
Копирование... OK
Трек 5
Имя файла C:\Downloads\Utena CD Box\CD10\05 - Dark Mix 'Kagee Shoujo'.wav
Длина предзазора 0:00:01.60
Пиковый уровень 99.7 %
Качество трека 100.0 %
CRC теста 8590290D
CRC копии 8590290D
Копирование... OK
Трек 6
Имя файла C:\Downloads\Utena CD Box\CD10\06 - Mambo 'Shi no Shi no Aphrodite'.wav
Длина предзазора 0:00:01.60
Пиковый уровень 99.9 %
Качество трека 100.0 %
CRC теста ECF97340
CRC копии ECF97340
Копирование... OK
Трек 7
Имя файла C:\Downloads\Utena CD Box\CD10\07 - Hawaiian 'Densetsu.Kami no Na wa Abraxas'.wav
Длина предзазора 0:00:01.60
Пиковый уровень 99.9 %
Качество трека 100.0 %
CRC теста 64F09D9E
CRC копии 64F09D9E
Копирование... OK
Трек 8
Имя файла C:\Downloads\Utena CD Box\CD10\08 - Club Mix 'Zettai Unmei Mokushiroku J.A.Cesar Medley'.wav
Длина предзазора 0:00:01.60
Пиковый уровень 99.8 %
Качество трека 100.0 %
CRC теста 1A51ABAE
CRC копии 1A51ABAE
Копирование... OK
Трек 9
Имя файла C:\Downloads\Utena CD Box\CD10\09 - Bossa Nova 'Zettai Unmei Mikushiroku' (Karaoke).wav
Длина предзазора 0:00:02.60
Пиковый уровень 99.9 %
Качество трека 99.9 %
CRC теста 0E473E59
CRC копии 0E473E59
Копирование... OK
Трек 10
Имя файла C:\Downloads\Utena CD Box\CD10\10 - Club Mix 'Zettai Unmei Mikushiroku Simple Edit'.wav
Длина предзазора 0:00:01.60
Пиковый уровень 99.7 %
Качество трека 100.0 %
CRC теста 237753D7
CRC копии 237753D7
Копирование... OK
Ошибок не произошло
Конец отчёта
Это окончательный полный вариант 10-ти дискового издания саундтреков к Утэне.
Для него я заново переконвертировал 1-й и 10-й диски, добавил недостающие 5-9-й диски, исправил (где нашёл) ошибки в названиях песен и привел их к единой системе.
Download
Сайт не распространяет и не хранит электронные версии произведений, а лишь предоставляет доступ к создаваемому пользователями каталогу ссылок на торрент-файлы, которые содержат только списки хеш-сумм
Как скачивать? (для скачивания .torrent файлов необходима регистрация)
[Профиль]  [ЛС] 

ktulho

Стаж: 11 лет 5 месяцев

Сообщений: 102

ktulho · 11-Май-09 19:12 (спустя 3 часа, ред. 11-Май-09 19:12)

ты этот бокс купил что ли? он уже давно валяется в сети в виде tak образов.
[Профиль]  [ЛС] 

mike1314

Стаж: 10 лет 7 месяцев

Сообщений: 173

mike1314 · 11-Май-09 19:30 (спустя 18 мин.)

да, купил. что есть в сети - не знаю, здесь нет, поэтому выложил.
[Профиль]  [ЛС] 

Lynx-Eyed

Стаж: 11 лет 10 месяцев

Сообщений: 40


Lynx-Eyed · 12-Май-09 07:27 (спустя 11 часов)

Да, лежит он в лосслессе на Открытых Торрентах, в том числе и на ТТ, потому раздача маложизнеспособна.
А вот сканы в инете лежат мелкие и убогие... можно попросить качественный сканлейт? =)
P.S. Кстати, для бокса Войн Сакуры тоже просил, не забыли?.. ^^
[Профиль]  [ЛС] 

tomalex

Стаж: 12 лет 6 месяцев

Сообщений: 743

tomalex · 12-Май-09 07:33 (спустя 5 мин.)

насколько я понимаю - в другом месте раздача во flac без логов. tak - пропретарный, закрытый и неприемлемый формат для большого числа плееров.
этот трекер надо делать ещё лучше. так что если где-то что-то есть - наважно.
пусть тут будет и будет лучше, правильно рипнутое.
[Профиль]  [ЛС] 

mike1314

Стаж: 10 лет 7 месяцев

Сообщений: 173

mike1314 · 12-Май-09 11:29 (спустя 3 часа)

Lynx-Eyed
Про сканы я помню, но пока некогда, сейчас закончу и выложу ещё один бокс ОСТов, тогда попробую...
tomalex
Спасибо за поддержку !
[Профиль]  [ЛС] 

ktulho

Стаж: 11 лет 5 месяцев

Сообщений: 102

ktulho · 12-Май-09 15:04 (спустя 3 часа, ред. 12-Май-09 15:04)

Цитата:
насколько я понимаю - в другом месте раздача во flac без логов.
нет,логи есть
Цитата:
tak - пропретарный, закрытый и неприемлемый формат для большого числа плееров.
дык оpensource же!
[Профиль]  [ЛС] 

tomalex

Стаж: 12 лет 6 месяцев

Сообщений: 743

tomalex · 12-Май-09 16:33 (спустя 1 час 29 мин.)

да нет там опенсоурса в tak. какая то виндовая библиотека для декодирования. а есть ещё маки, юникс и аппаратные плееры (flac и WavPack например некоторыми поддерживаются включая возможность кодирования/записи в них).
например у меня линукс и я прекрасно знаю все "прелести" проприетарных кодеков и программ с проприетарными лицензиями (даже APE проблематично встроить в плеер - поэтому APE нет например в foobar2000 а есть FLAC и WavPack).
там где я видел этот бокс во flac - там мне было логов
[Профиль]  [ЛС] 

kdffgt

Стаж: 10 лет 1 месяц

Сообщений: 12


kdffgt · 05-Июл-09 05:36 (спустя 1 месяц 23 дня)

похоже с такими скоростями это не скачается
жаль
[Профиль]  [ЛС] 

wroucrus

Стаж: 10 лет 1 месяц

Сообщений: 223

wroucrus · 06-Июл-09 07:47 (спустя 1 день 2 часа)

Торрент скачан: 24 раза
может и скачается. Пока не унываю
[Профиль]  [ЛС] 

mike1314

Стаж: 10 лет 7 месяцев

Сообщений: 173

mike1314 · 06-Июл-09 11:11 (спустя 3 часа)

пока что из сидеров остался я один, так что извините - скорость у меня действительно небольшая...
вечером вернусь домой и остальные раздачи приостановлю, так как на других раздачах ещё сидеры есть. должно помочь хоть немного !
[Профиль]  [ЛС] 

Black Drozd

Top Seed 01* 40r

Стаж: 11 лет 5 месяцев

Сообщений: 257

Black Drozd · 17-Окт-09 15:02 (спустя 3 месяца 11 дней, ред. 17-Окт-09 15:02)

Если что: вот тут лежит это же издание в mp3 320kbps: https://rutracker.org/forum/viewtopic.php?t=2313336
[Профиль]  [ЛС] 

Джасра

Стаж: 10 лет 11 месяцев

Сообщений: 5

Джасра · 18-Дек-09 02:12 (спустя 2 месяца)

А здесь есть треки из полнометражки?
[Профиль]  [ЛС] 

rabotash

Стаж: 8 лет 11 месяцев

Сообщений: 244

rabotash · 20-Июн-12 05:39 (спустя 2 года 6 месяцев, ред. 29-Авг-12 22:01)

Из оста Утены я сделаю раздачи в ALAC и AAC 256. С самыми лучшими обложками, полным набором тэгов, словами и переводами всех песен и дорам.
Это лучшее, что я слышал за последнее время.
Спасибо за раздачу.
Господи боже!
Used - 660$
New - 984$
[Профиль]  [ЛС] 

mike1314

Стаж: 10 лет 7 месяцев

Сообщений: 173

mike1314 · 21-Июн-12 17:22 (спустя 1 день 11 часов)

rabotash
Было дело...
Хотя на самом деле всё-таки дешевле было, когда вышло...
[Профиль]  [ЛС] 

rabotash

Стаж: 8 лет 11 месяцев

Сообщений: 244

rabotash · 13-Июл-12 21:53 (спустя 22 дня, ред. 08-Окт-12 20:00)

mike1314
Не могли бы вы отсканировать остальные обложки дисков с 3-го по 10-й.
В интернете нахожу лишь некачественные сканы или фотографии.
Прекрасно было бы увидеть полный перескан всех дисков, сохранённый в формате .png, артефакты жпега просто убивают.
Обработкой займусь я.
Для создания жемчужины коллекции необходим качественный соус.
Вот для примера версия 0.95 первого альбома.
http://goo.gl/jdSZD
upd: разобрался с изданиями и нашел все нужные обложки.
+update
Общая степень готовности - 100%
https://rutracker.org/forum/viewtopic.php?t=4185427
Скриншот из iTunes
ОТЧАЯННО ИЩУТСЯ СИНГЛЫ В ЛУЗЛЕССЕ
Если кто видел или у кого есть - дайте мне знать.
Список синглов по ссылке ниже.
http://web.archive.org/web/20100525150517/http://www.ohtori.nu/audiology/cd_singles.htm#1
[Профиль]  [ЛС] 

Cyberganizer

Стаж: 8 лет 7 месяцев

Сообщений: 68


Cyberganizer · 05-Июл-14 04:33 (спустя 1 год 11 месяцев)

02 Rondo - revolution
Чел, будь добр, переправь название в треклисте на 1 диске. А то я думал - нет полной заглавной темы.
[Профиль]  [ЛС] 

mike1314

Стаж: 10 лет 7 месяцев

Сообщений: 173

mike1314 · 06-Июл-14 14:36 (спустя 1 день 10 часов, ред. 06-Июл-14 19:34)

Cyberganizer
Так лучше?
[Профиль]  [ЛС] 

Cyberganizer

Стаж: 8 лет 7 месяцев

Сообщений: 68


Cyberganizer · 15-Июл-14 16:37 (спустя 9 дней)

mike1314 писал(а):
64469061Cyberganizer
Так лучше?
Да, спасибо.
[Профиль]  [ЛС] 
 
Ответить
Loading...
Error