(Шансон / Авторская песня) Александр Розенбаум - Ностальгия (1994), APE (image + .cue), lossless

Страницы:  1

Ответить
Автор
Сообщение

serflv

Стаж: 12 лет 1 месяц

Сообщений: 30


serflv · 27-Окт-07 23:24 (11 лет 7 месяцев назад, ред. 24-Ноя-10 14:26)

Александр Розенбаум - Ностальгия
Страна: Россия
Жанр: Шансон / Авторская песня
Год выпуска: 1999
Формат: APE (image + .cue)
Битрейт аудио: lossless
Продолжительность: 00:53:10
Трэклист:
01. Низкий старт (3:53)
02. Штандер (Посвящается Виктору Резникову) (4:28)
03. У нее и у меня (4:39)
04. Романс Колчака (4:31)
05. Целая жизнь (4:43)
06. Долгая дорога лета (5:27)
07. Днем и ночью (5:27)
08. Недотрога (4:59)
09. Город N (6:12)
10. Шантрапа (8:52)
Доп. информация:
Log EAC
Exact Audio Copy V0.99 prebeta 3 from 28. July 2007
EAC extraction logfile from 27. October 2007, 16:00
Александр Розенбаум / Ностальгия
Used drive : TSSTcorpDVD+-RW TS-L632D Adapter: 1 ID: 0
Read mode : Secure
Utilize accurate stream : Yes
Defeat audio cache : Yes
Make use of C2 pointers : No
Read offset correction : 6
Overread into Lead-In and Lead-Out : No
Fill up missing offset samples with silence : Yes
Delete leading and trailing silent blocks : No
Null samples used in CRC calculations : Yes
Used interface : Native Win32 interface for Win NT & 2000
Used output format : Internal WAV Routines
Sample format : 44.100 Hz; 16 Bit; Stereo
TOC of the extracted CD
Track | Start | Length | Start sector | End sector
---------------------------------------------------------
1 | 0:00.00 | 3:53.24 | 0 | 17498
2 | 3:53.24 | 4:27.55 | 17499 | 37578
3 | 8:21.04 | 4:38.51 | 37579 | 58479
4 | 12:59.55 | 4:30.46 | 58480 | 78775
5 | 17:30.26 | 4:43.26 | 78776 | 100026
6 | 22:13.52 | 5:27.31 | 100027 | 124582
7 | 27:41.08 | 5:26.45 | 124583 | 149077
8 | 33:07.53 | 4:58.58 | 149078 | 171485
9 | 38:06.36 | 6:12.22 | 171486 | 199407
10 | 44:18.58 | 8:51.44 | 199408 | 239276
Range status and errors
Selected range
Filename E:\temp\Александр Розенбаум - Ностальгия.wav
Peak level 95.5 %
Range quality 100.0 %
Copy CRC 683884AD
Copy OK
No errors occurred
End of status report
Доп. информация:
Cue
REM GENRE Chanson
REM DATE 1994
REM DISCID 850C760A
REM COMMENT "ExactAudioCopy v0.99pb3"
PERFORMER "Александр Розенбаум"
TITLE "Ностальгия"
FILE "Александр Розенбаум - Ностальгия.wav" WAVE
TRACK 01 AUDIO
TITLE "Низкий старт"
PERFORMER "Александр Розенбаум"
FLAGS DCP
INDEX 01 00:00:00
TRACK 02 AUDIO
TITLE "Штандер (Посвящается Виктору Резникову)"
PERFORMER "Александр Розенбаум"
FLAGS DCP
INDEX 01 03:53:24
TRACK 03 AUDIO
TITLE "У нее и у меня"
PERFORMER "Александр Розенбаум"
FLAGS DCP
INDEX 01 08:21:04
TRACK 04 AUDIO
TITLE "Романс Колчака"
PERFORMER "Александр Розенбаум"
FLAGS DCP
INDEX 01 12:59:55
TRACK 05 AUDIO
TITLE "Целая жизнь"
PERFORMER "Александр Розенбаум"
FLAGS DCP
INDEX 01 17:30:26
TRACK 06 AUDIO
TITLE "Долгая дорога лета"
PERFORMER "Александр Розенбаум"
FLAGS DCP
INDEX 01 22:13:52
TRACK 07 AUDIO
TITLE "Днем и ночью"
PERFORMER "Александр Розенбаум"
FLAGS DCP
INDEX 01 27:41:08
TRACK 08 AUDIO
TITLE "Недотрога"
PERFORMER "Александр Розенбаум"
FLAGS DCP
INDEX 01 33:07:53
TRACK 09 AUDIO
TITLE "Город N"
PERFORMER "Александр Розенбаум"
FLAGS DCP
INDEX 01 38:06:36
TRACK 10 AUDIO
TITLE "Шантрапа"
PERFORMER "Александр Розенбаум"
FLAGS DCP
INDEX 01 44:18:58
Download
Для скачивания .torrent файлов необходима регистрация
Сайт не распространяет и не хранит электронные версии произведений, а лишь предоставляет доступ к создаваемому пользователями каталогу ссылок на торрент-файлы, которые содержат только списки хеш-сумм
[Профиль]  [ЛС] 

postupi2008

Стаж: 11 лет

Сообщений: 14


postupi2008 · 26-Окт-08 23:21 (спустя 11 месяцев)

Слушал из этого альбома только потрясающий "Романс Колчака". Сейчас послушаю всё остальное.
Большое спасибо.
[Профиль]  [ЛС] 

КаИр-91

Стаж: 8 лет 9 месяцев

Сообщений: 706

КаИр-91 · 27-Фев-12 20:01 (спустя 3 года 4 месяца)

А песню "Целая жизнь" ещё можно найти в одноимённом альбоме господина Лепса... Тоже шедеврально её спел!
[Профиль]  [ЛС] 

vahruhr

Стаж: 7 лет 2 месяца

Сообщений: 120

vahruhr · 21-Май-12 20:58 (спустя 2 месяца 23 дня)

На первом треке какая-то непонятка. Какой-то плавающий звук. Не должно такого быть по идее.
[Профиль]  [ЛС] 

vahruhr

Стаж: 7 лет 2 месяца

Сообщений: 120

vahruhr · 25-Авг-13 21:55 (спустя 1 год 3 месяца)

Это явно в студии накосячили или при сведении. Во всех других переизданиях то же самое. На первой песне с 1:42 по 1:52 в одной колонке куда-то девается половина звука.
[Профиль]  [ЛС] 
 
Ответить
Loading...
Error